  0
SECTION
  2
HEADER
  9
$ACADVER
  1
AC1015
  9
$ACADMAINTVER
 70
     6
  9
$DWGCODEPAGE
  3
ANSI_932
  9
$INSBASE
 10
0.0
 20
0.0
 30
0.0
  9
$EXTMIN
 10
-468.929553359368
 20
71.61976954141057
 30
-0.00000001
  9
$EXTMAX
 10
-371.6000654891238
 20
329.4717401439163
 30
0.00000001
  9
$LIMMIN
 10
11.72986111111111
 20
9.446796332465277
  9
$LIMMAX
 10
200.279248046875
 20
282.012415907118
  9
$ORTHOMODE
 70
     1
  9
$REGENMODE
 70
     1
  9
$FILLMODE
 70
     1
  9
$QTEXTMODE
 70
     0
  9
$MIRRTEXT
 70
     1
  9
$LTSCALE
 40
1.0
  9
$ATTMODE
 70
     1
  9
$TEXTSIZE
 40
0.0
  9
$TRACEWID
 40
0.05
  9
$TEXTSTYLE
  7
Standard
  9
$CLAYER
  8
0
  9
$CELTYPE
  6
ByLayer
  9
$CECOLOR
 62
   256
  9
$CELTSCALE
 40
1.0
  9
$DISPSILH
 70
     0
  9
$DIMSCALE
 40
1.0
  9
$DIMASZ
 40
2.0
  9
$DIMEXO
 40
2.0
  9
$DIMDLI
 40
3.75
  9
$DIMRND
 40
0.0
  9
$DIMDLE
 40
0.0
  9
$DIMEXE
 40
0.5
  9
$DIMTP
 40
0.0
  9
$DIMTM
 40
0.0
  9
$DIMTXT
 40
2.5
  9
$DIMCEN
 40
2.0
  9
$DIMTSZ
 40
0.0
  9
$DIMTOL
 70
     0
  9
$DIMLIM
 70
     0
  9
$DIMTIH
 70
     0
  9
$DIMTOH
 70
     0
  9
$DIMSE1
 70
     0
  9
$DIMSE2
 70
     0
  9
$DIMTAD
 70
     1
  9
$DIMZIN
 70
     8
  9
$DIMBLK
  1

  9
$DIMASO
 70
     1
  9
$DIMSHO
 70
     1
  9
$DIMPOST
  1

  9
$DIMAPOST
  1

  9
$DIMALT
 70
     0
  9
$DIMALTD
 70
     3
  9
$DIMALTF
 40
0.03937007874016
  9
$DIMLFAC
 40
1.0
  9
$DIMTOFL
 70
     1
  9
$DIMTVP
 40
0.0
  9
$DIMTIX
 70
     1
  9
$DIMSOXD
 70
     1
  9
$DIMSAH
 70
     0
  9
$DIMBLK1
  1

  9
$DIMBLK2
  1

  9
$DIMSTYLE
  2
ISO-25 1／10
  9
$DIMCLRD
 70
     0
  9
$DIMCLRE
 70
     0
  9
$DIMCLRT
 70
     0
  9
$DIMTFAC
 40
1.0
  9
$DIMGAP
 40
0.75
  9
$DIMJUST
 70
     0
  9
$DIMSD1
 70
     0
  9
$DIMSD2
 70
     0
  9
$DIMTOLJ
 70
     0
  9
$DIMTZIN
 70
     8
  9
$DIMALTZ
 70
     0
  9
$DIMALTTZ
 70
     0
  9
$DIMUPT
 70
     0
  9
$DIMDEC
 70
     1
  9
$DIMTDEC
 70
     1
  9
$DIMALTU
 70
     2
  9
$DIMALTTD
 70
     3
  9
$DIMTXSTY
  7
Standard
  9
$DIMAUNIT
 70
     0
  9
$DIMADEC
 70
     8
  9
$DIMALTRND
 40
0.0
  9
$DIMAZIN
 70
     0
  9
$DIMDSEP
 70
    46
  9
$DIMATFIT
 70
     3
  9
$DIMFRAC
 70
     0
  9
$DIMLDRBLK
  1

  9
$DIMLUNIT
 70
     2
  9
$DIMLWD
 70
    -2
  9
$DIMLWE
 70
    -2
  9
$DIMTMOVE
 70
     0
  9
$LUNITS
 70
     2
  9
$LUPREC
 70
     4
  9
$SKETCHINC
 40
0.1
  9
$FILLETRAD
 40
0.2
  9
$AUNITS
 70
     0
  9
$AUPREC
 70
     0
  9
$MENU
  1
acad
  9
$ELEVATION
 40
0.0
  9
$PELEVATION
 40
0.0
  9
$THICKNESS
 40
0.0
  9
$LIMCHECK
 70
     0
  9
$CHAMFERA
 40
0.0
  9
$CHAMFERB
 40
0.0
  9
$CHAMFERC
 40
0.0
  9
$CHAMFERD
 40
0.0
  9
$SKPOLY
 70
     0
  9
$TDCREATE
 40
2460395.581419479
  9
$TDUCREATE
 40
2460395.206419479
  9
$TDUPDATE
 40
2460398.388676539
  9
$TDUUPDATE
 40
2460398.013676539
  9
$TDINDWG
 40
0.0873971412
  9
$TDUSRTIMER
 40
0.0873971412
  9
$USRTIMER
 70
     1
  9
$ANGBASE
 50
0.0
  9
$ANGDIR
 70
     0
  9
$PDMODE
 70
     0
  9
$PDSIZE
 40
0.0
  9
$PLINEWID
 40
0.0
  9
$SPLFRAME
 70
     0
  9
$SPLINETYPE
 70
     6
  9
$SPLINESEGS
 70
     8
  9
$HANDSEED
  5
2441
  9
$SURFTAB1
 70
     6
  9
$SURFTAB2
 70
     6
  9
$SURFTYPE
 70
     6
  9
$SURFU
 70
     6
  9
$SURFV
 70
     6
  9
$UCSBASE
  2

  9
$UCSNAME
  2

  9
$UCSORG
 10
0.0
 20
0.0
 30
0.0
  9
$UCSXDIR
 10
1.0
 20
0.0
 30
0.0
  9
$UCSYDIR
 10
0.0
 20
1.0
 30
0.0
  9
$UCSORTHOREF
  2

  9
$UCSORTHOVIEW
 70
     0
  9
$UCSORGTOP
 10
0.0
 20
0.0
 30
0.0
  9
$UCSORGBOTTOM
 10
0.0
 20
0.0
 30
0.0
  9
$UCSORGLEFT
 10
0.0
 20
0.0
 30
0.0
  9
$UCSORGRIGHT
 10
0.0
 20
0.0
 30
0.0
  9
$UCSORGFRONT
 10
0.0
 20
0.0
 30
0.0
  9
$UCSORGBACK
 10
0.0
 20
0.0
 30
0.0
  9
$PUCSBASE
  2

  9
$PUCSNAME
  2

  9
$PUCSORG
 10
0.0
 20
0.0
 30
0.0
  9
$PUCSXDIR
 10
1.0
 20
0.0
 30
0.0
  9
$PUCSYDIR
 10
0.0
 20
1.0
 30
0.0
  9
$PUCSORTHOREF
  2

  9
$PUCSORTHOVIEW
 70
     0
  9
$PUCSORGTOP
 10
0.0
 20
0.0
 30
0.0
  9
$PUCSORGBOTTOM
 10
0.0
 20
0.0
 30
0.0
  9
$PUCSORGLEFT
 10
0.0
 20
0.0
 30
0.0
  9
$PUCSORGRIGHT
 10
0.0
 20
0.0
 30
0.0
  9
$PUCSORGFRONT
 10
0.0
 20
0.0
 30
0.0
  9
$PUCSORGBACK
 10
0.0
 20
0.0
 30
0.0
  9
$USERI1
 70
     0
  9
$USERI2
 70
     0
  9
$USERI3
 70
     0
  9
$USERI4
 70
     0
  9
$USERI5
 70
     0
  9
$USERR1
 40
0.0
  9
$USERR2
 40
0.0
  9
$USERR3
 40
0.0
  9
$USERR4
 40
0.0
  9
$USERR5
 40
0.0
  9
$WORLDVIEW
 70
     1
  9
$SHADEDGE
 70
     3
  9
$SHADEDIF
 70
    70
  9
$TILEMODE
 70
     1
  9
$MAXACTVP
 70
    16
  9
$PINSBASE
 10
0.0
 20
0.0
 30
0.0
  9
$PLIMCHECK
 70
     0
  9
$PEXTMIN
 10
1.000000000000000E+20
 20
1.000000000000000E+20
 30
1.000000000000000E+20
  9
$PEXTMAX
 10
-1.000000000000000E+20
 20
-1.000000000000000E+20
 30
-1.000000000000000E+20
  9
$PLIMMIN
 10
0.0
 20
0.0
  9
$PLIMMAX
 10
12.0
 20
9.0
  9
$UNITMODE
 70
     0
  9
$VISRETAIN
 70
     0
  9
$PLINEGEN
 70
     1
  9
$PSLTSCALE
 70
     0
  9
$TREEDEPTH
 70
  3020
  9
$CMLSTYLE
  2
Standard
  9
$CMLJUST
 70
     0
  9
$CMLSCALE
 40
1.0
  9
$PROXYGRAPHICS
 70
     0
  9
$MEASUREMENT
 70
     1
  9
$CELWEIGHT
370
    13
  9
$ENDCAPS
280
     0
  9
$JOINSTYLE
280
     0
  9
$LWDISPLAY
290
     0
  9
$INSUNITS
 70
     0
  9
$HYPERLINKBASE
  1

  9
$STYLESHEET
  1

  9
$XEDIT
290
     1
  9
$CEPSNTYPE
380
     0
  9
$PSTYLEMODE
290
     1
  9
$FINGERPRINTGUID
  2

  9
$VERSIONGUID
  2
{0C124ED7-01A0-44B4-969C-CF30C71ECE8E}
  9
$EXTNAMES
290
     1
  9
$PSVPSCALE
 40
0.0
  9
$OLESTARTUP
290
     0
  0
ENDSEC
  0
SECTION
  2
CLASSES
  0
CLASS
  1
LWPOLYLINE
  2
AcDbPolyline
  3
AutoCAD 2000
 90
    32768
280
     0
281
     1
  0
CLASS
  1
IMAGE
  2
AcDbRasterImage
  3
ISM
 90
      127
280
     0
281
     1
  0
CLASS
  1
OLE2FRAME
  2
AcDbOle2Frame
  3
AutoCAD 2000
 90
    32768
280
     0
281
     1
  0
CLASS
  1
HATCH
  2
AcDbHatch
  3
AutoCAD 2000
 90
    32768
280
     0
281
     1
  0
CLASS
  1
DICTIONARYVAR
  2
AcDbDictionaryVar
  3
AutoCAD 2000
 90
    32768
280
     0
281
     0
  0
CLASS
  1
RASTERVARIABLES
  2
AcDbRasterVariables
  3
ISM
 90
        0
280
     0
281
     0
  0
CLASS
  1
IMAGEDEF
  2
AcDbRasterImageDef
  3
ISM
 90
    32768
280
     0
281
     0
  0
CLASS
  1
IMAGEDEF_REACTOR
  2
AcDbRasterImageDefReactor
  3
ISM
 90
        1
280
     0
281
     0
  0
CLASS
  1
IDBUFFER
  2
AcDbIdBuffer
  3
AutoCAD 2000
 90
    32768
280
     0
281
     0
  0
CLASS
  1
SPATIAL_FILTER
  2
AcDbSpatialFilter
  3
AutoCAD 2000
 90
    32768
280
     0
281
     0
  0
CLASS
  1
XRECORD
  2
AcDbXrecord
  3
AutoCAD 2000
 90
    32768
280
     0
281
     0
  0
CLASS
  1
SORTENTSTABLE
  2
AcDbSortentsTable
  3
AutoCAD 2000
 90
    32768
280
     0
281
     0
  0
CLASS
  1
LAYER_INDEX
  2
AcDbLayerIndex
  3
AutoCAD 2000
 90
    32768
280
     0
281
     0
  0
CLASS
  1
SPATIAL_INDEX
  2
AcDbSpatialIndex
  3
AutoCAD 2000
 90
    32768
280
     0
281
     0
  0
CLASS
  1
OBJECT_PTR
  2
CAseDLPNTableRecord
  3
"ASE-LPNTableRecord"
 90
    32769
280
     0
281
     0
  0
CLASS
  1
LAYOUT
  2
AcDbLayout
  3
AutoCAD 2000
 90
        0
280
     0
281
     0
  0
CLASS
  1
PLOTSETTINGS
  2
AcDbPlotSettings
  3
AutoCAD 2000
 90
    32768
280
     0
281
     0
  0
CLASS
  1
ACDBDICTIONARYWDFLT
  2
AcDbDictionaryWithDefault
  3
AutoCAD 2000
 90
        0
280
     0
281
     0
  0
CLASS
  1
ACDBPLACEHOLDER
  2
AcDbPlaceHolder
  3
AutoCAD 2000
 90
        0
280
     0
281
     0
  0
CLASS
  1
VBA_PROJECT
  2
AcDbVbaProject
  3
acadvba
 90
    32768
280
     0
281
     0
  0
CLASS
  1
WIPEOUT
  2
AcDbWipeout
  3
WipeOut|AutoCAD Express Tool|expresstools@autodesk.com
 90
    32895
280
     0
281
     1
  0
CLASS
  1
WIPEOUTVARIABLES
  2
AcDbWipeoutVariables
  3
WipeOut|AutoCAD Express Tool|expresstools@autodesk.com
 90
        0
280
     0
281
     0
  0
CLASS
  1
RTEXT
  2
RText
  3
RText|AutoCAD Express Tool|expresstools@autodesk.com
 90
    32768
280
     0
281
     1
  0
CLASS
  1
ARCALIGNEDTEXT
  2
AcDbArcAlignedText
  3
ATEXT|AutoCAD Express Tool|expresstools@autodesk.com
 90
    32768
280
     0
281
     1
  0
ENDSEC
  0
SECTION
  2
TABLES
  0
TABLE
  2
VPORT
  5
7
330
0
100
AcDbSymbolTable
 70
     2
  0
VPORT
  5
2440
330
7
100
AcDbSymbolTableRecord
100
AcDbViewportTableRecord
  2
*Active
 70
     0
 10
0.0
 20
0.0
 11
1.0
 21
1.0
 12
-382.5960125820022
 22
211.0993358707214
 13
0.0
 23
0.0
 14
1.0
 24
1.0
 15
0.0
 25
0.0
 16
0.0
 26
0.0
 36
1.0
 17
0.0
 27
0.0
 37
0.0
 40
320.0097698654295
 41
2.165492957746478
 42
50.0
 43
0.0
 44
0.0
 50
0.0
 51
0.0
 71
     0
 72
   100
 73
     1
 74
     1
 75
     0
 76
     0
 77
     0
 78
     0
281
     0
 65
     0
110
0.0
120
0.0
130
0.0
111
1.0
121
0.0
131
0.0
112
0.0
122
1.0
132
0.0
 79
     0
146
0.0
  0
ENDTAB
  0
TABLE
  2
LTYPE
  5
4
330
0
100
AcDbSymbolTable
 70
     1
  0
LTYPE
  5
11
330
4
100
AcDbSymbolTableRecord
100
AcDbLinetypeTableRecord
  2
ByBlock
 70
     0
  3

 72
    65
 73
     0
 40
0.0
  0
LTYPE
  5
12
330
4
100
AcDbSymbolTableRecord
100
AcDbLinetypeTableRecord
  2
ByLayer
 70
     0
  3

 72
    65
 73
     0
 40
0.0
  0
LTYPE
  5
13
330
4
100
AcDbSymbolTableRecord
100
AcDbLinetypeTableRecord
  2
Continuous
 70
     0
  3
Solid line
 72
    65
 73
     0
 40
0.0
  0
ENDTAB
  0
TABLE
  2
LAYER
  5
2
102
{ACAD_XDICTIONARY
360
1351
102
}
330
0
100
AcDbSymbolTable
 70
     5
  0
LAYER
  5
14
330
2
100
AcDbSymbolTableRecord
100
AcDbLayerTableRecord
  2
0
 70
     0
 62
     7
  6
Continuous
370
    -3
390
1D
  0
LAYER
  5
28
330
2
100
AcDbSymbolTableRecord
100
AcDbLayerTableRecord
  2
レイヤー_1
 70
     0
 62
   160
  6
Continuous
370
    -3
390
1D
  0
LAYER
  5
15C5
330
2
100
AcDbSymbolTableRecord
100
AcDbLayerTableRecord
  2
Defpoints
 70
     0
 62
     2
  6
Continuous
290
     0
370
    -3
390
1D
  0
LAYER
  5
15C6
330
2
100
AcDbSymbolTableRecord
100
AcDbLayerTableRecord
  2
寸法
 70
     0
 62
     6
  6
Continuous
370
    -3
390
1D
  0
LAYER
  5
15C7
330
2
100
AcDbSymbolTableRecord
100
AcDbLayerTableRecord
  2
文字
 70
     0
 62
    30
  6
Continuous
370
    -3
390
1D
  0
ENDTAB
  0
TABLE
  2
STYLE
  5
3
330
0
100
AcDbSymbolTable
 70
     2
  0
STYLE
  5
17
330
3
100
AcDbSymbolTableRecord
100
AcDbTextStyleTableRecord
  2
Standard
 70
     0
 40
0.0
 41
1.0
 50
0.0
 71
     0
 42
0.0
  3
txt
  4

  0
STYLE
  5
24
330
3
100
AcDbSymbolTableRecord
100
AcDbTextStyleTableRecord
  2
STD
 70
     0
 40
0.0
 41
1.0
 50
0.0
 71
     0
 42
0.0
  3
txt
  4

  0
ENDTAB
  0
TABLE
  2
VIEW
  5
5
330
0
100
AcDbSymbolTable
 70
     0
  0
ENDTAB
  0
TABLE
  2
UCS
  5
6
330
0
100
AcDbSymbolTable
 70
     0
  0
ENDTAB
  0
TABLE
  2
APPID
  5
8
330
0
100
AcDbSymbolTable
 70
     1
  0
APPID
  5
16
330
8
100
AcDbSymbolTableRecord
100
AcDbRegAppTableRecord
  2
ACAD
 70
     0
  0
ENDTAB
  0
TABLE
  2
DIMSTYLE
  5
9
330
0
100
AcDbSymbolTable
 70
     2
100
AcDbDimStyleTable
 71
     2
340
15C8
340
18
  0
DIMSTYLE
105
18
330
9
100
AcDbSymbolTableRecord
100
AcDbDimStyleTableRecord
  2
Standard
 70
     0
289
     0
340
17
  0
DIMSTYLE
105
15C8
102
{ACAD_REACTORS
330
2240
330
2333
330
2335
330
2334
330
241B
102
}
330
9
100
AcDbSymbolTableRecord
100
AcDbDimStyleTableRecord
  2
ISO-25 1／10
 70
     0
 41
2.0
 42
2.0
 43
3.75
 44
0.5
 73
     0
 74
     0
 77
     1
 78
     8
140
2.5
141
2.0
143
0.03937007874016
147
0.75
171
     3
172
     1
174
     1
175
     1
179
     8
271
     1
272
     1
274
     3
283
     0
284
     8
340
17
  0
ENDTAB
  0
TABLE
  2
BLOCK_RECORD
  5
1
330
0
100
AcDbSymbolTable
 70
     6
  0
BLOCK_RECORD
  5
A
330
1
100
AcDbSymbolTableRecord
100
AcDbBlockTableRecord
  2
*MODEL_SPACE
340
20
  0
BLOCK_RECORD
  5
B
330
1
100
AcDbSymbolTableRecord
100
AcDbBlockTableRecord
  2
*PAPER_SPACE
340
21
  0
BLOCK_RECORD
  5
38
330
1
100
AcDbSymbolTableRecord
100
AcDbBlockTableRecord
  2
AI9-BLK2
340
0
102
{BLKREFS
331
1268
102
}
  0
BLOCK_RECORD
  5
2241
330
1
100
AcDbSymbolTableRecord
100
AcDbBlockTableRecord
  2
*D1
340
0
  0
BLOCK_RECORD
  5
2336
330
1
100
AcDbSymbolTableRecord
100
AcDbBlockTableRecord
  2
*D2
340
0
  0
BLOCK_RECORD
  5
2342
330
1
100
AcDbSymbolTableRecord
100
AcDbBlockTableRecord
  2
*D3
340
0
  0
BLOCK_RECORD
  5
234E
330
1
100
AcDbSymbolTableRecord
100
AcDbBlockTableRecord
  2
*D4
340
0
  0
BLOCK_RECORD
  5
241C
330
1
100
AcDbSymbolTableRecord
100
AcDbBlockTableRecord
  2
*D5
340
0
  0
ENDTAB
  0
ENDSEC
  0
SECTION
  2
BLOCKS
  0
BLOCK
  5
D
330
A
100
AcDbEntity
  8
0
100
AcDbBlockBegin
  2
*MODEL_SPACE
 70
     0
 10
0.0
 20
0.0
 30
0.0
  3
*MODEL_SPACE
  1

  0
ENDBLK
  5
E
330
A
100
AcDbEntity
  8
0
100
AcDbBlockEnd
  0
BLOCK
  5
F
330
B
100
AcDbEntity
 67
     1
  8
0
100
AcDbBlockBegin
  2
*PAPER_SPACE
 70
     0
 10
0.0
 20
0.0
 30
0.0
  3
*PAPER_SPACE
  1

  0
ENDBLK
  5
10
330
B
100
AcDbEntity
 67
     1
  8
0
100
AcDbBlockEnd
  0
BLOCK
  5
3A
330
38
100
AcDbEntity
  8
レイヤー_1
 62
     7
100
AcDbBlockBegin
  2
AI9-BLK2
 70
     0
 10
0.0
 20
0.0
 30
0.0
  3
AI9-BLK2
  1

  0
IMAGE
  5
3B
330
38
100
AcDbEntity
  8
レイヤー_1
 62
     7
 92
      276
310
1401000003000000800000000A000000E3388E42CE7213C050FA4432D2D530C0000000000000000000000000000000000000000000000000000000000000F03F000000000000F03F000000000000000000000000000000000000000000000000000000000000F03F000000000000000041634462526173746572496D616765
310
202849534D29000000840000000600000005000000E3388E42CE7213C050FA4432D2D530C00000000000000000B5600BB6C072134050FA4432D2D530C00000000000000000B5600BB6C07213408EE3388ED7D530400000000000000000E3388E42CE7213C08EE3388ED7D530400000000000000000E3388E42CE7213C050FA
310
4432D2D530C000000000000000000800000015000000
100
AcDbRasterImage
 90
        0
 10
-4.862114944391779
 20
16.83532036675347
 30
0.0
 11
0.0
 21
-0.2531620974342028
 31
0.0
 12
0.2493379026651382
 22
0.0
 32
0.0
 13
133.0
 23
39.0
340
0
 70
     7
280
     0
281
    50
282
    50
283
     0
360
3C
 71
     1
 91
        2
 14
-0.5
 24
-0.5
 14
132.4999999999999
 24
38.5
  0
ENDBLK
  5
3E
330
38
100
AcDbEntity
  8
レイヤー_1
100
AcDbBlockEnd
  0
BLOCK
  5
224B
330
2241
100
AcDbEntity
  8
0
370
    13
100
AcDbBlockBegin
  2
*D1
 70
     1
 10
0.0
 20
0.0
 30
0.0
  3
*D1
  1

  0
LINE
  5
23E5
330
2241
100
AcDbEntity
  8
寸法
 62
     0
370
    -2
100
AcDbLine
 10
-396.1236436832383
 20
322.3621615970587
 30
0.0
 11
-396.1236436832383
 21
326.0967401439163
 31
0.0
  0
LINE
  5
23E6
330
2241
100
AcDbEntity
  8
寸法
 62
     0
370
    -2
100
AcDbLine
 10
-412.6236436832384
 20
322.5967400724878
 30
0.0
 11
-412.6236436832384
 21
326.0967401439163
 31
0.0
  0
LINE
  5
23E7
330
2241
100
AcDbEntity
  8
寸法
 62
     0
370
    -2
100
AcDbLine
 10
-398.1236436832383
 20
325.5967401439163
 30
0.0
 11
-410.6236436832383
 21
325.5967401439163
 31
0.0
  0
SOLID
  5
23E8
330
2241
100
AcDbEntity
  8
寸法
 62
     0
370
    13
100
AcDbTrace
 10
-398.1236436832383
 20
325.9300734772496
 30
0.0
 11
-398.1236436832383
 21
325.263406810583
 31
0.0
 12
-396.1236436832383
 22
325.5967401439163
 32
0.0
 13
-396.1236436832383
 23
325.5967401439163
 33
0.0
  0
SOLID
  5
23E9
330
2241
100
AcDbEntity
  8
寸法
 62
     0
370
    13
100
AcDbTrace
 10
-410.6236436832383
 20
325.9300734772496
 30
0.0
 11
-410.6236436832383
 21
325.263406810583
 31
0.0
 12
-412.6236436832384
 22
325.5967401439163
 32
0.0
 13
-412.6236436832384
 23
325.5967401439163
 33
0.0
  0
MTEXT
  5
23EA
330
2241
100
AcDbEntity
  8
寸法
 62
     0
370
    13
100
AcDbMText
 10
-404.3736436832383
 20
327.5967401439163
 30
0.0
 40
2.5
 41
0.0
 71
     5
 72
     1
  1
{\fMS UI Gothic|b0|i0|c128|p17;\U+2260}16.5
 73
     1
 44
1.0
  0
POINT
  5
23EB
330
2241
100
AcDbEntity
  8
Defpoints
 62
     0
370
    13
100
AcDbPoint
 10
-396.1236436832383
 20
320.3621615970587
 30
0.0
  0
POINT
  5
23EC
330
2241
100
AcDbEntity
  8
Defpoints
 62
     0
370
    13
100
AcDbPoint
 10
-412.6236436832384
 20
320.5967400724878
 30
0.0
  0
POINT
  5
23ED
330
2241
100
AcDbEntity
  8
Defpoints
 62
     0
370
    13
100
AcDbPoint
 10
-412.6236436832384
 20
325.5967401439163
 30
0.0
  0
ENDBLK
  5
224C
330
2241
100
AcDbEntity
  8
0
370
    13
100
AcDbBlockEnd
  0
BLOCK
  5
2340
330
2336
100
AcDbEntity
  8
0
370
    13
100
AcDbBlockBegin
  2
*D2
 70
     1
 10
0.0
 20
0.0
 30
0.0
  3
*D2
  1

  0
LINE
  5
2400
330
2336
100
AcDbEntity
  8
寸法
 62
     0
370
    -2
100
AcDbLine
 10
-441.836931382769
 20
156.0959397835055
 30
0.0
 11
-441.836931382769
 21
142.0967401439163
 31
0.0
  0
LINE
  5
2401
330
2336
100
AcDbEntity
  8
寸法
 62
     0
370
    -2
100
AcDbLine
 10
-371.8368998533942
 20
156.0978189329117
 30
0.0
 11
-371.8368998533942
 21
142.0967401439163
 31
0.0
  0
LINE
  5
2402
330
2336
100
AcDbEntity
  8
寸法
 62
     0
370
    -2
100
AcDbLine
 10
-439.836931382769
 20
142.5967401439163
 30
0.0
 11
-373.8368998533942
 21
142.5967401439163
 31
0.0
  0
SOLID
  5
2403
330
2336
100
AcDbEntity
  8
寸法
 62
     0
370
    13
100
AcDbTrace
 10
-439.836931382769
 20
142.9300734772497
 30
0.0
 11
-439.836931382769
 21
142.263406810583
 31
0.0
 12
-441.836931382769
 22
142.5967401439163
 32
0.0
 13
-441.836931382769
 23
142.5967401439163
 33
0.0
  0
SOLID
  5
2404
330
2336
100
AcDbEntity
  8
寸法
 62
     0
370
    13
100
AcDbTrace
 10
-373.8368998533942
 20
142.9300734772497
 30
0.0
 11
-373.8368998533942
 21
142.263406810583
 31
0.0
 12
-371.8368998533942
 22
142.5967401439163
 32
0.0
 13
-371.8368998533942
 23
142.5967401439163
 33
0.0
  0
MTEXT
  5
2405
330
2336
100
AcDbEntity
  8
寸法
 62
     0
370
    13
100
AcDbMText
 10
-406.8369156180816
 20
144.5967401439163
 30
0.0
 40
2.5
 41
0.0
 71
     5
 72
     1
  1
70
 73
     1
 44
1.0
  0
POINT
  5
2406
330
2336
100
AcDbEntity
  8
Defpoints
 62
     0
370
    13
100
AcDbPoint
 10
-441.836931382769
 20
158.0959397835056
 30
0.0
  0
POINT
  5
2407
330
2336
100
AcDbEntity
  8
Defpoints
 62
     0
370
    13
100
AcDbPoint
 10
-371.8368998533942
 20
158.0978189329117
 30
0.0
  0
POINT
  5
2408
330
2336
100
AcDbEntity
  8
Defpoints
 62
     0
370
    13
100
AcDbPoint
 10
-371.8368998533942
 20
142.5967401439163
 30
0.0
  0
ENDBLK
  5
2341
330
2336
100
AcDbEntity
  8
0
370
    13
100
AcDbBlockEnd
  0
BLOCK
  5
234C
330
2342
100
AcDbEntity
  8
0
370
    13
100
AcDbBlockBegin
  2
*D3
 70
     1
 10
0.0
 20
0.0
 30
0.0
  3
*D3
  1

  0
LINE
  5
2409
330
2342
100
AcDbEntity
  8
寸法
 62
     0
370
    -2
100
AcDbLine
 10
-416.8368681850628
 20
167.6318921406311
 30
0.0
 11
-416.8368681850628
 21
147.0967401439163
 31
0.0
  0
LINE
  5
240A
330
2342
100
AcDbEntity
  8
寸法
 62
     0
370
    -2
100
AcDbLine
 10
-396.8368681850628
 20
166.4233946451915
 30
0.0
 11
-396.8368681850628
 21
147.0967401439163
 31
0.0
  0
LINE
  5
240B
330
2342
100
AcDbEntity
  8
寸法
 62
     0
370
    -2
100
AcDbLine
 10
-414.8368681850628
 20
147.5967401439163
 30
0.0
 11
-398.8368681850628
 21
147.5967401439163
 31
0.0
  0
SOLID
  5
240C
330
2342
100
AcDbEntity
  8
寸法
 62
     0
370
    13
100
AcDbTrace
 10
-414.8368681850628
 20
147.9300734772497
 30
0.0
 11
-414.8368681850628
 21
147.263406810583
 31
0.0
 12
-416.8368681850628
 22
147.5967401439163
 32
0.0
 13
-416.8368681850628
 23
147.5967401439163
 33
0.0
  0
SOLID
  5
240D
330
2342
100
AcDbEntity
  8
寸法
 62
     0
370
    13
100
AcDbTrace
 10
-398.8368681850628
 20
147.9300734772497
 30
0.0
 11
-398.8368681850628
 21
147.263406810583
 31
0.0
 12
-396.8368681850628
 22
147.5967401439163
 32
0.0
 13
-396.8368681850628
 23
147.5967401439163
 33
0.0
  0
MTEXT
  5
240E
330
2342
100
AcDbEntity
  8
寸法
 62
     0
370
    13
100
AcDbMText
 10
-406.8368681850628
 20
149.5967401439163
 30
0.0
 40
2.5
 41
0.0
 71
     5
 72
     1
  1
%%c20
 73
     1
 44
1.0
  0
POINT
  5
240F
330
2342
100
AcDbEntity
  8
Defpoints
 62
     0
370
    13
100
AcDbPoint
 10
-416.8368681850628
 20
169.6318921406311
 30
0.0
  0
POINT
  5
2410
330
2342
100
AcDbEntity
  8
Defpoints
 62
     0
370
    13
100
AcDbPoint
 10
-396.8368681850628
 20
168.4233946451915
 30
0.0
  0
POINT
  5
2411
330
2342
100
AcDbEntity
  8
Defpoints
 62
     0
370
    13
100
AcDbPoint
 10
-396.8368681850628
 20
147.5967401439163
 30
0.0
  0
ENDBLK
  5
234D
330
2342
100
AcDbEntity
  8
0
370
    13
100
AcDbBlockEnd
  0
BLOCK
  5
2358
330
234E
100
AcDbEntity
  8
0
370
    13
100
AcDbBlockBegin
  2
*D4
 70
     1
 10
0.0
 20
0.0
 30
0.0
  3
*D4
  1

  0
LINE
  5
2412
330
234E
100
AcDbEntity
  8
寸法
 62
     0
370
    -2
100
AcDbLine
 10
-411.3369156180767
 20
156.5976458417576
 30
0.0
 11
-411.3369156180767
 21
152.0967401439163
 31
0.0
  0
LINE
  5
2413
330
234E
100
AcDbEntity
  8
寸法
 62
     0
370
    -2
100
AcDbLine
 10
-402.3369156180767
 20
156.5976458417576
 30
0.0
 11
-402.3369156180767
 21
152.0967401439163
 31
0.0
  0
LINE
  5
2414
330
234E
100
AcDbEntity
  8
寸法
 62
     0
370
    -2
100
AcDbLine
 10
-409.3369156180767
 20
152.5967401439163
 30
0.0
 11
-404.3369156180767
 21
152.5967401439163
 31
0.0
  0
SOLID
  5
2415
330
234E
100
AcDbEntity
  8
寸法
 62
     0
370
    13
100
AcDbTrace
 10
-409.3369156180767
 20
152.9300734772497
 30
0.0
 11
-409.3369156180767
 21
152.263406810583
 31
0.0
 12
-411.3369156180767
 22
152.5967401439163
 32
0.0
 13
-411.3369156180767
 23
152.5967401439163
 33
0.0
  0
SOLID
  5
2416
330
234E
100
AcDbEntity
  8
寸法
 62
     0
370
    13
100
AcDbTrace
 10
-404.3369156180767
 20
152.9300734772497
 30
0.0
 11
-404.3369156180767
 21
152.263406810583
 31
0.0
 12
-402.3369156180767
 22
152.5967401439163
 32
0.0
 13
-402.3369156180767
 23
152.5967401439163
 33
0.0
  0
MTEXT
  5
2417
330
234E
100
AcDbEntity
  8
寸法
 62
     0
370
    13
100
AcDbMText
 10
-406.8369156180767
 20
154.5967401439163
 30
0.0
 40
2.5
 41
0.0
 71
     5
 72
     1
  1
%%c9
 73
     1
 44
1.0
  0
POINT
  5
2418
330
234E
100
AcDbEntity
  8
Defpoints
 62
     0
370
    13
100
AcDbPoint
 10
-411.3369156180767
 20
158.5976458417576
 30
0.0
  0
POINT
  5
2419
330
234E
100
AcDbEntity
  8
Defpoints
 62
     0
370
    13
100
AcDbPoint
 10
-402.3369156180767
 20
158.5976458417576
 30
0.0
  0
POINT
  5
241A
330
234E
100
AcDbEntity
  8
Defpoints
 62
     0
370
    13
100
AcDbPoint
 10
-402.3369156180767
 20
152.5967401439163
 30
0.0
  0
ENDBLK
  5
2359
330
234E
100
AcDbEntity
  8
0
370
    13
100
AcDbBlockEnd
  0
BLOCK
  5
2426
330
241C
100
AcDbEntity
  8
0
370
    13
100
AcDbBlockBegin
  2
*D5
 70
     1
 10
0.0
 20
0.0
 30
0.0
  3
*D5
  1

  0
LINE
  5
2431
330
241C
100
AcDbEntity
  8
寸法
 62
     0
370
    -2
100
AcDbLine
 10
-427.8443115151429
 20
267.5963989404014
 30
0.0
 11
-446.9333394692942
 21
267.5963989404014
 31
0.0
  0
LINE
  5
2432
330
241C
100
AcDbEntity
  8
寸法
 62
     0
370
    -2
100
AcDbLine
 10
-442.9342662285019
 20
157.5895862052266
 30
0.0
 11
-446.9333394692942
 21
157.5895862052266
 31
0.0
  0
LINE
  5
2433
330
241C
100
AcDbEntity
  8
寸法
 62
     0
370
    -2
100
AcDbLine
 10
-446.4333394692942
 20
265.5963989404014
 30
0.0
 11
-446.4333394692942
 21
159.5895862052266
 31
0.0
  0
SOLID
  5
2434
330
241C
100
AcDbEntity
  8
寸法
 62
     0
370
    13
100
AcDbTrace
 10
-446.7666728026275
 20
265.5963989404014
 30
0.0
 11
-446.1000061359609
 21
265.5963989404014
 31
0.0
 12
-446.4333394692942
 22
267.5963989404014
 32
0.0
 13
-446.4333394692942
 23
267.5963989404014
 33
0.0
  0
SOLID
  5
2435
330
241C
100
AcDbEntity
  8
寸法
 62
     0
370
    13
100
AcDbTrace
 10
-446.7666728026275
 20
159.5895862052266
 30
0.0
 11
-446.1000061359609
 21
159.5895862052266
 31
0.0
 12
-446.4333394692942
 22
157.5895862052266
 32
0.0
 13
-446.4333394692942
 23
157.5895862052266
 33
0.0
  0
MTEXT
  5
2436
330
241C
100
AcDbEntity
  8
寸法
 62
     0
370
    13
100
AcDbMText
 10
-448.4333394692942
 20
212.5929925728139
 30
0.0
 40
2.5
 41
0.0
 71
     5
 72
     1
  1
110
 11
0.0000000000000001
 21
1.0
 31
0.0
 73
     1
 44
1.0
  0
POINT
  5
2437
330
241C
100
AcDbEntity
  8
Defpoints
 62
     0
370
    13
100
AcDbPoint
 10
-425.8443115151429
 20
267.5963989404014
 30
0.0
  0
POINT
  5
2438
330
241C
100
AcDbEntity
  8
Defpoints
 62
     0
370
    13
100
AcDbPoint
 10
-440.934266228502
 20
157.5895862052266
 30
0.0
  0
POINT
  5
2439
330
241C
100
AcDbEntity
  8
Defpoints
 62
     0
370
    13
100
AcDbPoint
 10
-446.4333394692942
 20
157.5895862052266
 30
0.0
  0
ENDBLK
  5
2427
330
241C
100
AcDbEntity
  8
0
370
    13
100
AcDbBlockEnd
  0
ENDSEC
  0
SECTION
  2
ENTITIES
  0
INSERT
  5
1268
330
A
100
AcDbEntity
  8
0
370
    13
100
AcDbBlockReference
  2
AI9-BLK2
 10
26.2342298719618
 20
123.9333482530381
 30
0.0
  0
TEXT
  5
127C
330
A
100
AcDbEntity
  8
0
 62
   214
370
    13
100
AcDbText
 10
67.92268214058314
 20
101.1834555764622
 30
0.0
 40
2.099899999999999
  1
 
 50
0.000000000000007
  7
STD
100
AcDbText
  0
MTEXT
  5
16E9
330
A
100
AcDbEntity
  8
文字
370
    13
100
AcDbMText
 10
-459.2278488139135
 20
136.7259153152986
 30
0.0
 40
5.0
 41
0.0
 71
     5
 72
     1
  1
{\fMS UI Gothic|b0|i0|c128|p17;B1790}
 73
     1
 44
1.0
  0
SPLINE
  5
1829
102
{ACAD_REACTORS
330
1E10
102
}
330
A
100
AcDbEntity
  8
0
370
    13
100
AcDbSpline
210
0.0
220
0.0
230
1.0
 70
     8
 71
     3
 72
     8
 73
     4
 74
     0
 42
0.0000000001
 43
0.0000000001
 40
1.0
 40
1.0
 40
1.0
 40
1.0
 40
2.0
 40
2.0
 40
2.0
 40
2.0
 10
-388.5159691936249
 20
267.8465137543773
 30
0.0
 10
-388.5173359438874
 20
267.9842138433183
 30
0.0
 10
-388.6314595908012
 20
268.0956039897072
 30
0.0
 10
-388.7698430548733
 20
268.0942372394448
 30
0.0
  0
SPLINE
  5
182A
102
{ACAD_REACTORS
330
1E10
102
}
330
A
100
AcDbEntity
  8
0
370
    13
100
AcDbSpline
210
0.0
220
0.0
230
1.0
 70
    24
 71
     3
 72
     8
 73
     4
 74
     0
 42
0.0000000001
 43
0.0000000001
 40
0.0
 40
0.0
 40
0.0
 40
0.0
 40
1.0
 40
1.0
 40
1.0
 40
1.0
 10
-388.5159691936249
 20
267.8427551911557
 30
0.0
 10
-388.5159691936249
 20
267.8427551911557
 30
0.0
 10
-388.5159691936249
 20
267.8465137543773
 30
0.0
 10
-388.5159691936249
 20
267.8465137543773
 30
0.0
  0
SPLINE
  5
182F
102
{ACAD_REACTORS
330
1E11
102
}
330
A
100
AcDbEntity
  8
0
370
    13
100
AcDbSpline
210
0.0
220
0.0
230
1.0
 70
     8
 71
     3
 72
     8
 73
     4
 74
     0
 42
0.0000000001
 43
0.0000000001
 40
1.0
 40
1.0
 40
1.0
 40
1.0
 40
2.0
 40
2.0
 40
2.0
 40
2.0
 10
-395.0811549205616
 20
254.9358708200504
 30
0.0
 10
-395.0958474858829
 20
254.8883762484306
 30
0.0
 10
-395.1033646123264
 20
254.8384898638516
 30
0.0
 10
-395.1033646123264
 20
254.7896285419693
 30
0.0
  0
SPLINE
  5
1830
102
{ACAD_REACTORS
330
1E11
102
}
330
A
100
AcDbEntity
  8
0
370
    13
100
AcDbSpline
210
0.0
220
0.0
230
1.0
 70
     8
 71
     3
 72
     8
 73
     4
 74
     0
 42
0.0000000001
 43
0.0000000001
 40
0.0
 40
0.0
 40
0.0
 40
0.0
 40
1.0
 40
1.0
 40
1.0
 40
1.0
 10
-394.4548416127982
 20
255.2686745089549
 30
0.0
 10
-394.7193077885805
 20
255.3489710868732
 30
0.0
 10
-394.9991499048153
 20
255.1999953082673
 30
0.0
 10
-395.0804715454305
 20
254.9355291324849
 30
0.0
  0
SPLINE
  5
184C
102
{ACAD_REACTORS
330
1C09
102
}
330
A
100
AcDbEntity
  8
0
370
    13
100
AcDbSpline
210
0.0
220
0.0
230
1.0
 70
     8
 71
     3
 72
     8
 73
     4
 74
     0
 42
0.0000000001
 43
0.0000000001
 40
1.0
 40
1.0
 40
1.0
 40
1.0
 40
2.0
 40
2.0
 40
2.0
 40
2.0
 10
-411.6776033573795
 20
271.4492679302218
 30
0.0
 10
-411.7537996845105
 20
271.5654417025292
 30
0.0
 10
-411.9092675268631
 20
271.5961935834341
 30
0.0
 10
-412.0254412991704
 20
271.5199972563031
 30
0.0
  0
SPLINE
  5
184D
102
{ACAD_REACTORS
330
1C09
102
}
330
A
100
AcDbEntity
  8
0
370
    13
100
AcDbSpline
210
0.0
220
0.0
230
1.0
 70
     8
 71
     3
 72
     8
 73
     4
 74
     0
 42
0.0000000001
 43
0.0000000001
 40
0.0
 40
0.0
 40
0.0
 40
0.0
 40
1.0
 40
1.0
 40
1.0
 40
1.0
 10
-411.7483326834607
 20
271.1014299884307
 30
0.0
 10
-411.6328422862845
 20
271.1776263155617
 30
0.0
 10
-411.6014070302482
 20
271.3337775330456
 30
0.0
 10
-411.6776033573795
 20
271.4492679302218
 30
0.0
  0
SPLINE
  5
1850
102
{ACAD_REACTORS
330
1C09
102
}
330
A
100
AcDbEntity
  8
0
370
    13
100
AcDbSpline
210
0.0
220
0.0
230
1.0
 70
     8
 71
     3
 72
     8
 73
     4
 74
     0
 42
0.0000000001
 43
0.0000000001
 40
1.0
 40
1.0
 40
1.0
 40
1.0
 40
2.0
 40
2.0
 40
2.0
 40
2.0
 10
-425.8443115151429
 20
268.0938960359299
 30
0.0
 10
-425.9820116040838
 20
268.0938960359299
 30
0.0
 10
-426.0944268131694
 20
267.9811391392785
 30
0.0
 10
-426.0944268131694
 20
267.8424139876408
 30
0.0
  0
SPLINE
  5
1851
102
{ACAD_REACTORS
330
1C09
102
}
330
A
100
AcDbEntity
  8
0
370
    13
100
AcDbSpline
210
0.0
220
0.0
230
1.0
 70
    24
 71
     3
 72
     8
 73
     4
 74
     0
 42
0.0000000001
 43
0.0000000001
 40
0.0
 40
0.0
 40
0.0
 40
0.0
 40
1.0
 40
1.0
 40
1.0
 40
1.0
 10
-425.8405529519213
 20
268.0938960359299
 30
0.0
 10
-425.8405529519213
 20
268.0938960359299
 30
0.0
 10
-425.8443115151429
 20
268.0938960359299
 30
0.0
 10
-425.8443115151429
 20
268.0938960359299
 30
0.0
  0
SPLINE
  5
1876
102
{ACAD_REACTORS
330
1C03
102
}
330
A
100
AcDbEntity
  8
0
370
    13
100
AcDbSpline
210
0.0
220
0.0
230
1.0
 70
     8
 71
     3
 72
     8
 73
     4
 74
     0
 42
0.0000000001
 43
0.0000000001
 40
0.0
 40
0.0
 40
0.0
 40
0.0
 40
1.0
 40
1.0
 40
1.0
 40
1.0
 10
-410.8174049136525
 20
169.1509051750245
 30
0.0
 10
-411.746111716981
 20
169.8192460533579
 30
0.0
 10
-412.9977132698109
 20
169.8192460533579
 30
0.0
 10
-413.9257366980082
 20
169.1509051750245
 30
0.0
  0
SPLINE
  5
187D
102
{ACAD_REACTORS
330
1C09
102
}
330
A
100
AcDbEntity
  8
0
370
    13
100
AcDbSpline
210
0.0
220
0.0
230
1.0
 70
     8
 71
     3
 72
     8
 73
     4
 74
     0
 42
0.0000000001
 43
0.0000000001
 40
0.0
 40
0.0
 40
0.0
 40
0.0
 40
1.0
 40
1.0
 40
1.0
 40
1.0
 10
-426.0944268131694
 20
267.8468559259937
 30
0.0
 10
-426.0944268131694
 20
267.7081307743559
 30
0.0
 10
-425.9820116040838
 20
267.5963989404014
 30
0.0
 10
-425.8443115151429
 20
267.5963989404014
 30
0.0
  0
SPLINE
  5
187E
102
{ACAD_REACTORS
330
1C09
102
}
330
A
100
AcDbEntity
  8
0
370
    13
100
AcDbSpline
210
0.0
220
0.0
230
1.0
 70
     8
 71
     3
 72
     8
 73
     4
 74
     0
 42
0.0000000001
 43
0.0000000001
 40
0.0
 40
0.0
 40
0.0
 40
0.0
 40
1.0
 40
1.0
 40
1.0
 40
1.0
 10
-424.0504517956892
 20
267.09445990652
 30
0.0
 10
-424.0504517956892
 20
267.3715685222299
 30
0.0
 10
-424.2752822138609
 20
267.5963989404014
 30
0.0
 10
-424.5520491420051
 20
267.5963989404014
 30
0.0
  0
SPLINE
  5
187F
102
{ACAD_REACTORS
330
1C09
102
}
330
A
100
AcDbEntity
  8
0
370
    13
100
AcDbSpline
210
0.0
220
0.0
230
1.0
 70
     8
 71
     3
 72
     8
 73
     4
 74
     0
 42
0.0000000001
 43
0.0000000001
 40
0.0
 40
0.0
 40
0.0
 40
0.0
 40
1.0
 40
1.0
 40
1.0
 40
1.0
 10
-424.197035761336
 20
265.8674598538262
 30
0.0
 10
-424.1034133683589
 20
265.9603988716722
 30
0.0
 10
-424.0504517956892
 20
266.088531708776
 30
0.0
 10
-424.0504517956892
 20
266.2221315469297
 30
0.0
  0
SPLINE
  5
1880
102
{ACAD_REACTORS
330
1C09
102
}
330
A
100
AcDbEntity
  8
0
370
    13
100
AcDbSpline
210
0.0
220
0.0
230
1.0
 70
     8
 71
     3
 72
     8
 73
     4
 74
     0
 42
0.0000000001
 43
0.0000000001
 40
0.0
 40
0.0
 40
0.0
 40
0.0
 40
1.0
 40
1.0
 40
1.0
 40
1.0
 10
-423.8509062573729
 20
259.6648054753048
 30
0.0
 10
-423.8297216283051
 20
259.8192482549606
 30
0.0
 10
-423.8823415134091
 20
259.9747160973132
 30
0.0
 10
-423.9927065971011
 20
260.0861062437022
 30
0.0
  0
SPLINE
  5
1881
102
{ACAD_REACTORS
330
1C09
102
}
330
A
100
AcDbEntity
  8
0
370
    13
100
AcDbSpline
210
0.0
220
0.0
230
1.0
 70
     8
 71
     3
 72
     8
 73
     4
 74
     0
 42
0.0000000001
 43
0.0000000001
 40
0.0
 40
0.0
 40
0.0
 40
0.0
 40
1.0
 40
1.0
 40
1.0
 40
1.0
 10
-424.0545520464766
 20
257.8842715754979
 30
0.0
 10
-424.0545520464766
 20
257.607162959788
 30
0.0
 10
-423.830746691002
 20
257.3826742291821
 30
0.0
 10
-423.5532963877266
 20
257.3826742291821
 30
0.0
  0
SPLINE
  5
1882
102
{ACAD_REACTORS
330
1C09
102
}
330
A
100
AcDbEntity
  8
0
370
    13
100
AcDbSpline
210
0.0
220
0.0
230
1.0
 70
     8
 71
     3
 72
     8
 73
     4
 74
     0
 42
0.0000000001
 43
0.0000000001
 40
0.0
 40
0.0
 40
0.0
 40
0.0
 40
1.0
 40
1.0
 40
1.0
 40
1.0
 10
-414.9830888670921
 20
257.382674229182
 30
0.0
 10
-414.8443637154545
 20
257.382674229182
 30
0.0
 10
-414.7107638773008
 20
257.441444490467
 30
0.0
 10
-414.6157747340613
 20
257.5436090725844
 30
0.0
  0
SPLINE
  5
1883
102
{ACAD_REACTORS
330
1C09
102
}
330
A
100
AcDbEntity
  8
0
370
    13
100
AcDbSpline
210
0.0
220
0.0
230
1.0
 70
     8
 71
     3
 72
     8
 73
     4
 74
     0
 42
0.0000000001
 43
0.0000000001
 40
0.0
 40
0.0
 40
0.0
 40
0.0
 40
1.0
 40
1.0
 40
1.0
 40
1.0
 10
-411.7640503114787
 20
260.5883869697367
 30
0.0
 10
-412.8919609655579
 20
259.7563777474759
 30
0.0
 10
-413.8592784638003
 20
258.7241396117676
 30
0.0
 10
-414.6157747340613
 20
257.5436090725844
 30
0.0
  0
SPLINE
  5
1884
102
{ACAD_REACTORS
330
1C09
102
}
330
A
100
AcDbEntity
  8
0
370
    13
100
AcDbSpline
210
0.0
220
0.0
230
1.0
 70
     8
 71
     3
 72
    11
 73
     7
 74
     0
 42
0.0000000001
 43
0.0000000001
 40
0.0
 40
0.0
 40
0.0
 40
0.0
 40
1.0
 40
1.0
 40
1.0
 40
2.0
 40
2.0
 40
2.0
 40
2.0
 10
-411.7640503114787
 20
260.5883869697367
 30
0.0
 10
-411.6485599143024
 20
260.6645832968677
 30
0.0
 10
-411.6171246582664
 20
260.8200511392204
 30
0.0
 10
-411.6933209853975
 20
260.9355415363966
 30
0.0
 10
-411.7695173125285
 20
261.0510319335728
 30
0.0
 10
-411.924985154881
 20
261.0831505647402
 30
0.0
 10
-412.0411589271885
 20
261.0059291749123
 30
0.0
  0
SPLINE
  5
1885
102
{ACAD_REACTORS
330
1C09
102
}
330
A
100
AcDbEntity
  8
0
370
    13
100
AcDbSpline
210
0.0
220
0.0
230
1.0
 70
     8
 71
     3
 72
     8
 73
     4
 74
     0
 42
0.0000000001
 43
0.0000000001
 40
0.0
 40
0.0
 40
0.0
 40
0.0
 40
1.0
 40
1.0
 40
1.0
 40
1.0
 10
-413.5233995868055
 20
259.9600235365796
 30
0.0
 10
-413.0112099259559
 20
260.2818932233843
 30
0.0
 10
-412.5157629558209
 20
260.631097915438
 30
0.0
 10
-412.0404755520572
 20
261.0059291749123
 30
0.0
  0
SPLINE
  5
1886
102
{ACAD_REACTORS
330
1C09
102
}
330
A
100
AcDbEntity
  8
0
370
    13
100
AcDbSpline
210
0.0
220
0.0
230
1.0
 70
     8
 71
     3
 72
    11
 73
     7
 74
     0
 42
0.0000000001
 43
0.0000000001
 40
0.0
 40
0.0
 40
0.0
 40
0.0
 40
1.0
 40
1.0
 40
1.0
 40
2.0
 40
2.0
 40
2.0
 40
2.0
 10
-414.2026744672386
 20
260.4288188765967
 30
0.0
 10
-414.2026744672386
 20
260.1517102608868
 30
0.0
 10
-413.9781857366328
 20
259.9268798427154
 30
0.0
 10
-413.7010771209228
 20
259.9268798427154
 30
0.0
 10
-413.6402567342442
 20
259.9268798427154
 30
0.0
 10
-413.5808030978281
 20
259.9381555323805
 30
0.0
 10
-413.5233995868055
 20
259.9600235365796
 30
0.0
  0
SPLINE
  5
1889
102
{ACAD_REACTORS
330
1C09
102
}
330
A
100
AcDbEntity
  8
0
370
    13
100
AcDbSpline
210
0.0
220
0.0
230
1.0
 70
     8
 71
     3
 72
    11
 73
     7
 74
     0
 42
0.0000000001
 43
0.0000000001
 40
0.0
 40
0.0
 40
0.0
 40
0.0
 40
1.0
 40
1.0
 40
1.0
 40
2.0
 40
2.0
 40
2.0
 40
2.0
 10
-411.7476493083296
 20
264.07052495087
 30
0.0
 10
-411.6321589111534
 20
264.1470629655666
 30
0.0
 10
-411.6007236551172
 20
264.3021891203537
 30
0.0
 10
-411.6769199822484
 20
264.4176795175299
 30
0.0
 10
-411.7531163093794
 20
264.5331699147062
 30
0.0
 10
-411.908584151732
 20
264.5646051707423
 30
0.0
 10
-412.0247579240394
 20
264.4884088436112
 30
0.0
  0
SPLINE
  5
188A
102
{ACAD_REACTORS
330
1C09
102
}
330
A
100
AcDbEntity
  8
0
370
    13
100
AcDbSpline
210
0.0
220
0.0
230
1.0
 70
     8
 71
     3
 72
     8
 73
     4
 74
     0
 42
0.0000000001
 43
0.0000000001
 40
0.0
 40
0.0
 40
0.0
 40
0.0
 40
1.0
 40
1.0
 40
1.0
 40
1.0
 10
-413.5076819587877
 20
263.4421615177128
 30
0.0
 10
-412.995492297938
 20
263.7643728920833
 30
0.0
 10
-412.5000453278031
 20
264.1132358965712
 30
0.0
 10
-412.0247579240394
 20
264.4884088436112
 30
0.0
  0
SPLINE
  5
188B
102
{ACAD_REACTORS
330
1C09
102
}
330
A
100
AcDbEntity
  8
0
370
    13
100
AcDbSpline
210
0.0
220
0.0
230
1.0
 70
     8
 71
     3
 72
    11
 73
     7
 74
     0
 42
0.0000000001
 43
0.0000000001
 40
0.0
 40
0.0
 40
0.0
 40
0.0
 40
1.0
 40
1.0
 40
1.0
 40
2.0
 40
2.0
 40
2.0
 40
2.0
 10
-414.1869568392207
 20
263.9112985452957
 30
0.0
 10
-414.1869568392207
 20
263.6338482420202
 30
0.0
 10
-413.9624681086149
 20
263.4100428865455
 30
0.0
 10
-413.6853594929049
 20
263.4100428865455
 30
0.0
 10
-413.6245391062263
 20
263.4100428865455
 30
0.0
 10
-413.5650854698101
 20
263.4206352010794
 30
0.0
 10
-413.5076819587877
 20
263.4421615177128
 30
0.0
  0
SPLINE
  5
188C
102
{ACAD_REACTORS
330
1C09
102
}
330
A
100
AcDbEntity
  8
0
370
    13
100
AcDbSpline
210
0.0
220
0.0
230
1.0
 70
     8
 71
     3
 72
     8
 73
     4
 74
     0
 42
0.0000000001
 43
0.0000000001
 40
0.0
 40
0.0
 40
0.0
 40
0.0
 40
1.0
 40
1.0
 40
1.0
 40
1.0
 10
-414.0359309352209
 20
265.0860203958634
 30
0.0
 10
-414.1326285162886
 20
264.991714627755
 30
0.0
 10
-414.1869568392207
 20
264.8622150403888
 30
0.0
 10
-414.1869568392207
 20
264.7272484519728
 30
0.0
  0
SPLINE
  5
188D
102
{ACAD_REACTORS
330
1C09
102
}
330
A
100
AcDbEntity
  8
0
370
    13
100
AcDbSpline
210
0.0
220
0.0
230
1.0
 70
     8
 71
     3
 72
     8
 73
     4
 74
     0
 42
0.0000000001
 43
0.0000000001
 40
0.0
 40
0.0
 40
0.0
 40
0.0
 40
1.0
 40
1.0
 40
1.0
 40
1.0
 10
-411.7483326834607
 20
267.551296181741
 30
0.0
 10
-412.6370620416127
 20
266.8559619857242
 30
0.0
 10
-413.4089342523262
 20
266.0236110758979
 30
0.0
 10
-414.0359309352208
 20
265.0860203958635
 30
0.0
  0
SPLINE
  5
188E
102
{ACAD_REACTORS
330
1C09
102
}
330
A
100
AcDbEntity
  8
0
370
    13
100
AcDbSpline
210
0.0
220
0.0
230
1.0
 70
     8
 71
     3
 72
    11
 73
     7
 74
     0
 42
0.0000000001
 43
0.0000000001
 40
0.0
 40
0.0
 40
0.0
 40
0.0
 40
1.0
 40
1.0
 40
1.0
 40
2.0
 40
2.0
 40
2.0
 40
2.0
 10
-411.7483326834607
 20
267.551296181741
 30
0.0
 10
-411.6328422862845
 20
267.6281758840032
 30
0.0
 10
-411.6014070302483
 20
267.7836437263559
 30
0.0
 10
-411.6776033573795
 20
267.8991341235321
 30
0.0
 10
-411.7537996845105
 20
268.0146245207083
 30
0.0
 10
-411.9092675268631
 20
268.0460597767444
 30
0.0
 10
-412.0254412991704
 20
267.9698634496134
 30
0.0
  0
SPLINE
  5
188F
102
{ACAD_REACTORS
330
1C09
102
}
330
A
100
AcDbEntity
  8
0
370
    13
100
AcDbSpline
210
0.0
220
0.0
230
1.0
 70
     8
 71
     3
 72
     8
 73
     4
 74
     0
 42
0.0000000001
 43
0.0000000001
 40
0.0
 40
0.0
 40
0.0
 40
0.0
 40
1.0
 40
1.0
 40
1.0
 40
1.0
 10
-413.5076819587877
 20
266.923616123715
 30
0.0
 10
-412.9954922979378
 20
267.2454858105198
 30
0.0
 10
-412.500045327803
 20
267.5946905025734
 30
0.0
 10
-412.0247579240394
 20
267.9698634496134
 30
0.0
  0
SPLINE
  5
1890
102
{ACAD_REACTORS
330
1C09
102
}
330
A
100
AcDbEntity
  8
0
370
    13
100
AcDbSpline
210
0.0
220
0.0
230
1.0
 70
     8
 71
     3
 72
    11
 73
     7
 74
     0
 42
0.0000000001
 43
0.0000000001
 40
0.0
 40
0.0
 40
0.0
 40
0.0
 40
1.0
 40
1.0
 40
1.0
 40
2.0
 40
2.0
 40
2.0
 40
2.0
 10
-414.1869568392205
 20
267.3924114637321
 30
0.0
 10
-414.1869568392205
 20
267.1153028480223
 30
0.0
 10
-413.9624681086147
 20
266.8914974925477
 30
0.0
 10
-413.6853594929048
 20
266.8914974925477
 30
0.0
 10
-413.6245391062263
 20
266.8914974925477
 30
0.0
 10
-413.56508546981
 20
266.9027731822128
 30
0.0
 10
-413.5076819587877
 20
266.923616123715
 30
0.0
  0
SPLINE
  5
1891
102
{ACAD_REACTORS
330
1C09
102
}
330
A
100
AcDbEntity
  8
0
370
    13
100
AcDbSpline
210
0.0
220
0.0
230
1.0
 70
     8
 71
     3
 72
     8
 73
     4
 74
     0
 42
0.0000000001
 43
0.0000000001
 40
0.0
 40
0.0
 40
0.0
 40
0.0
 40
1.0
 40
1.0
 40
1.0
 40
1.0
 10
-414.0359309352208
 20
268.6361542025533
 30
0.0
 10
-414.1326285162885
 20
268.5415067468792
 30
0.0
 10
-414.1869568392205
 20
268.4123488470786
 30
0.0
 10
-414.1869568392205
 20
268.2770405710969
 30
0.0
  0
SPLINE
  5
1892
102
{ACAD_REACTORS
330
1C09
102
}
330
A
100
AcDbEntity
  8
0
370
    13
100
AcDbSpline
210
0.0
220
0.0
230
1.0
 70
     8
 71
     3
 72
     8
 73
     4
 74
     0
 42
0.0000000001
 43
0.0000000001
 40
0.0
 40
0.0
 40
0.0
 40
0.0
 40
1.0
 40
1.0
 40
1.0
 40
1.0
 10
-411.7483326834607
 20
271.1014299884307
 30
0.0
 10
-412.6370620416127
 20
270.4064374799796
 30
0.0
 10
-413.408934252326
 20
269.5744282577188
 30
0.0
 10
-414.0359309352208
 20
268.6361542025533
 30
0.0
  0
SPLINE
  5
1893
102
{ACAD_REACTORS
330
1C09
102
}
330
A
100
AcDbEntity
  8
0
370
    13
100
AcDbSpline
210
0.0
220
0.0
230
1.0
 70
     8
 71
     3
 72
     8
 73
     4
 74
     0
 42
0.0000000001
 43
0.0000000001
 40
0.0
 40
0.0
 40
0.0
 40
0.0
 40
1.0
 40
1.0
 40
1.0
 40
1.0
 10
-425.8405529519213
 20
268.0938960359299
 30
0.0
 10
-421.058293783641
 20
268.3416195209973
 30
0.0
 10
-416.368290258076
 20
269.5043823067687
 30
0.0
 10
-412.0247579240393
 20
271.5199972563031
 30
0.0
  0
SPLINE
  5
1894
102
{ACAD_REACTORS
330
1E10
102
}
330
A
100
AcDbEntity
  8
0
370
    13
100
AcDbSpline
210
0.0
220
0.0
230
1.0
 70
     8
 71
     3
 72
     8
 73
     4
 74
     0
 42
0.0000000001
 43
0.0000000001
 40
0.0
 40
0.0
 40
0.0
 40
0.0
 40
1.0
 40
1.0
 40
1.0
 40
1.0
 10
-397.0055384487754
 20
270.3545004859561
 30
0.0
 10
-394.5710145438029
 20
268.7427602389728
 30
0.0
 10
-391.6858047397906
 20
267.9507284618885
 30
0.0
 10
-388.7691596797422
 20
268.0935538643136
 30
0.0
  0
SPLINE
  5
1895
102
{ACAD_REACTORS
330
1E10
102
}
330
A
100
AcDbEntity
  8
0
370
    13
100
AcDbSpline
210
0.0
220
0.0
230
1.0
 70
     8
 71
     3
 72
    11
 73
     7
 74
     0
 42
0.0000000001
 43
0.0000000001
 40
0.0
 40
0.0
 40
0.0
 40
0.0
 40
1.0
 40
1.0
 40
1.0
 40
2.0
 40
2.0
 40
2.0
 40
2.0
 10
-397.0055384487754
 20
270.3545004859561
 30
0.0
 10
-397.1210288459517
 20
270.4306968130871
 30
0.0
 10
-397.2771800634355
 20
270.399261557051
 30
0.0
 10
-397.3533763905665
 20
270.2837711598748
 30
0.0
 10
-397.4295727176977
 20
270.1682807626985
 30
0.0
 10
-397.3981374616617
 20
270.0128129203459
 30
0.0
 10
-397.2826470644852
 20
269.9366165932149
 30
0.0
  0
SPLINE
  5
1896
102
{ACAD_REACTORS
330
1E10
102
}
330
A
100
AcDbEntity
  8
0
370
    13
100
AcDbSpline
210
0.0
220
0.0
230
1.0
 70
     8
 71
     3
 72
     8
 73
     4
 74
     0
 42
0.0000000001
 43
0.0000000001
 40
0.0
 40
0.0
 40
0.0
 40
0.0
 40
1.0
 40
1.0
 40
1.0
 40
1.0
 10
-397.2826470644852
 20
269.9366165932149
 30
0.0
 10
-396.9194331822416
 20
269.6960685470253
 30
0.0
 10
-396.5459686730298
 20
269.4726048791162
 30
0.0
 10
-396.1622535368495
 20
269.2662255894877
 30
0.0
  0
SPLINE
  5
1897
102
{ACAD_REACTORS
330
1E10
102
}
330
A
100
AcDbEntity
  8
0
370
    13
100
AcDbSpline
210
0.0
220
0.0
230
1.0
 70
     8
 71
     3
 72
     8
 73
     4
 74
     0
 42
0.0000000001
 43
0.0000000001
 40
0.0
 40
0.0
 40
0.0
 40
0.0
 40
1.0
 40
1.0
 40
1.0
 40
1.0
 10
-395.8977873610672
 20
268.8247652547193
 30
0.0
 10
-395.8977873610672
 20
269.0092765401487
 30
0.0
 10
-395.9999519431846
 20
269.1787535726915
 30
0.0
 10
-396.1622535368495
 20
269.2662255894877
 30
0.0
  0
SPLINE
  5
1898
102
{ACAD_REACTORS
330
1E10
102
}
330
A
100
AcDbEntity
  8
0
370
    13
100
AcDbSpline
210
0.0
220
0.0
230
1.0
 70
     8
 71
     3
 72
     8
 73
     4
 74
     0
 42
0.0000000001
 43
0.0000000001
 40
0.0
 40
0.0
 40
0.0
 40
0.0
 40
1.0
 40
1.0
 40
1.0
 40
1.0
 10
-395.8977873610672
 20
257.87470383961
 30
0.0
 10
-395.8977873610672
 20
257.5975952239001
 30
0.0
 10
-395.6739820055927
 20
257.3731064932943
 30
0.0
 10
-395.3968733898827
 20
257.3731064932943
 30
0.0
  0
SPLINE
  5
1899
102
{ACAD_REACTORS
330
1E10
102
}
330
A
100
AcDbEntity
  8
0
370
    13
100
AcDbSpline
210
0.0
220
0.0
230
1.0
 70
     8
 71
     3
 72
     8
 73
     4
 74
     0
 42
0.0000000001
 43
0.0000000001
 40
0.0
 40
0.0
 40
0.0
 40
0.0
 40
1.0
 40
1.0
 40
1.0
 40
1.0
 10
-391.0434321164434
 20
257.3731064932943
 30
0.0
 10
-390.7663235007336
 20
257.3731064932943
 30
0.0
 10
-390.5418347701278
 20
257.5975952239001
 30
0.0
 10
-390.5418347701278
 20
257.87470383961
 30
0.0
  0
SPLINE
  5
189A
102
{ACAD_REACTORS
330
1E10
102
}
330
A
100
AcDbEntity
  8
0
370
    13
100
AcDbSpline
210
0.0
220
0.0
230
1.0
 70
     8
 71
     3
 72
     8
 73
     4
 74
     0
 42
0.0000000001
 43
0.0000000001
 40
0.0
 40
0.0
 40
0.0
 40
0.0
 40
1.0
 40
1.0
 40
1.0
 40
1.0
 10
-390.0402374238121
 20
261.4787328688703
 30
0.0
 10
-390.3173460395219
 20
261.4787328688703
 30
0.0
 10
-390.5418347701279
 20
261.2535607631331
 30
0.0
 10
-390.5418347701279
 20
260.9771355225546
 30
0.0
  0
SPLINE
  5
189B
102
{ACAD_REACTORS
330
1E10
102
}
330
A
100
AcDbEntity
  8
0
370
    13
100
AcDbSpline
210
0.0
220
0.0
230
1.0
 70
     8
 71
     3
 72
     8
 73
     4
 74
     0
 42
0.0000000001
 43
0.0000000001
 40
0.0
 40
0.0
 40
0.0
 40
0.0
 40
1.0
 40
1.0
 40
1.0
 40
1.0
 10
-388.6540109701316
 20
260.9771355225546
 30
0.0
 10
-388.6540109701316
 20
261.2542441382644
 30
0.0
 10
-388.8778163256063
 20
261.4787328688703
 30
0.0
 10
-389.155950004013
 20
261.4787328688703
 30
0.0
  0
SPLINE
  5
189C
102
{ACAD_REACTORS
330
1E10
102
}
330
A
100
AcDbEntity
  8
0
370
    13
100
AcDbSpline
210
0.0
220
0.0
230
1.0
 70
     8
 71
     3
 72
     8
 73
     4
 74
     0
 42
0.0000000001
 43
0.0000000001
 40
0.0
 40
0.0
 40
0.0
 40
0.0
 40
1.0
 40
1.0
 40
1.0
 40
1.0
 10
-388.6540109701316
 20
260.7051522203289
 30
0.0
 10
-388.6540109701316
 20
260.4280436046191
 30
0.0
 10
-388.4295222395257
 20
260.2032131864475
 30
0.0
 10
-388.1524136238158
 20
260.2032131864475
 30
0.0
  0
SPLINE
  5
189F
102
{ACAD_REACTORS
330
1E10
102
}
330
A
100
AcDbEntity
  8
0
370
    13
100
AcDbSpline
210
0.0
220
0.0
230
1.0
 70
     8
 71
     3
 72
     8
 73
     4
 74
     0
 42
0.0000000001
 43
0.0000000001
 40
0.0
 40
0.0
 40
0.0
 40
0.0
 40
1.0
 40
1.0
 40
1.0
 40
1.0
 10
-387.9788363404858
 20
264.7811431904928
 30
0.0
 10
-388.2559449561956
 20
264.7811431904928
 30
0.0
 10
-388.4804336868015
 20
264.5563127723213
 30
0.0
 10
-388.4804336868015
 20
264.2792041566114
 30
0.0
  0
SPLINE
  5
18A0
102
{ACAD_REACTORS
330
1E10
102
}
330
A
100
AcDbEntity
  8
0
370
    13
100
AcDbSpline
210
0.0
220
0.0
230
1.0
 70
     8
 71
     3
 72
     8
 73
     4
 74
     0
 42
0.0000000001
 43
0.0000000001
 40
0.0
 40
0.0
 40
0.0
 40
0.0
 40
1.0
 40
1.0
 40
1.0
 40
1.0
 10
-388.9823727206828
 20
263.5063068832012
 30
0.0
 10
-388.705264104973
 20
263.5063068832012
 30
0.0
 10
-388.4804336868014
 20
263.7307956138071
 30
0.0
 10
-388.4804336868014
 20
264.0072208543857
 30
0.0
  0
SPLINE
  5
18A1
102
{ACAD_REACTORS
330
1E10
102
}
330
A
100
AcDbEntity
  8
0
370
    13
100
AcDbSpline
210
0.0
220
0.0
230
1.0
 70
     8
 71
     3
 72
     8
 73
     4
 74
     0
 42
0.0000000001
 43
0.0000000001
 40
0.0
 40
0.0
 40
0.0
 40
0.0
 40
1.0
 40
1.0
 40
1.0
 40
1.0
 10
-390.4929734482454
 20
264.0079042295169
 30
0.0
 10
-390.4929734482454
 20
263.730795613807
 30
0.0
 10
-390.2688264052051
 20
263.5063068832011
 30
0.0
 10
-389.991034414364
 20
263.5063068832011
 30
0.0
  0
SPLINE
  5
18A2
102
{ACAD_REACTORS
330
1E10
102
}
330
A
100
AcDbEntity
  8
0
370
    13
100
AcDbSpline
210
0.0
220
0.0
230
1.0
 70
     8
 71
     3
 72
     8
 73
     4
 74
     0
 42
0.0000000001
 43
0.0000000001
 40
0.0
 40
0.0
 40
0.0
 40
0.0
 40
1.0
 40
1.0
 40
1.0
 40
1.0
 10
-389.991034414364
 20
267.5967401439163
 30
0.0
 10
-390.2681430300739
 20
267.5967401439163
 30
0.0
 10
-390.4929734482454
 20
267.3719097257448
 30
0.0
 10
-390.4929734482454
 20
267.094801110035
 30
0.0
  0
SPLINE
  5
18A3
102
{ACAD_REACTORS
330
1E10
102
}
330
A
100
AcDbEntity
  8
0
370
    13
100
AcDbSpline
210
0.0
220
0.0
230
1.0
 70
     8
 71
     3
 72
     8
 73
     4
 74
     0
 42
0.0000000001
 43
0.0000000001
 40
0.0
 40
0.0
 40
0.0
 40
0.0
 40
1.0
 40
1.0
 40
1.0
 40
1.0
 10
-388.7664261792171
 20
267.5967401439163
 30
0.0
 10
-388.6277010275796
 20
267.5967401439163
 30
0.0
 10
-388.5159691936249
 20
267.7084719778708
 30
0.0
 10
-388.5159691936249
 20
267.8471971295087
 30
0.0
  0
SPLINE
  5
18C0
102
{ACAD_REACTORS
330
1E7E
102
}
330
A
100
AcDbEntity
  8
0
370
    13
100
AcDbSpline
210
0.0
220
0.0
230
1.0
 70
     8
 71
     3
 72
     8
 73
     4
 74
     0
 42
0.0000000001
 43
0.0000000001
 40
0.052389709071199
 40
0.052389709071199
 40
0.052389709071199
 40
0.052389709071199
 40
1.0
 40
1.0
 40
1.0
 40
1.0
 10
-421.9281407688204
 20
225.1017504291611
 30
0.0
 10
-421.9222181042639
 20
225.0421169006606
 30
0.0
 10
-421.8769448139282
 20
224.9664466504017
 30
0.0
 10
-421.809273403356
 20
224.9159359324627
 30
0.0
  0
SPLINE
  5
18C1
102
{ACAD_REACTORS
330
1E7E
102
}
330
A
100
AcDbEntity
  8
0
370
    13
100
AcDbSpline
210
0.0
220
0.0
230
1.0
 70
     8
 71
     3
 72
     8
 73
     4
 74
     0
 42
0.0000000001
 43
0.0000000001
 40
0.0
 40
0.0
 40
0.0
 40
0.0
 40
1.0
 40
1.0
 40
1.0
 40
1.0
 10
-421.8765858537814
 20
225.5962358755926
 30
0.0
 10
-421.940823116116
 20
225.5333653635203
 30
0.0
 10
-421.974991872677
 20
225.4472600969865
 30
0.0
 10
-421.9688414964961
 20
225.3577379547967
 30
0.0
  0
SPLINE
  5
18D0
102
{ACAD_REACTORS
330
1E11
102
}
330
A
100
AcDbEntity
  8
0
370
    13
100
AcDbSpline
210
0.0
220
0.0
230
1.0
 70
     8
 71
     3
 72
    11
 73
     7
 74
     0
 42
0.0000000001
 43
0.0000000001
 40
0.0
 40
0.0
 40
0.0
 40
0.0
 40
1.0
 40
1.0
 40
1.0
 40
2.0
 40
2.0
 40
2.0
 40
2.0
 10
-395.4758040588415
 20
256.6292743952146
 30
0.0
 10
-395.5239820055924
 20
256.6439669605358
 30
0.0
 10
-395.5728433274748
 20
256.6508007118481
 30
0.0
 10
-395.6227297120538
 20
256.6508007118481
 30
0.0
 10
-395.8998383277637
 20
256.6508007118481
 30
0.0
 10
-396.1236436832382
 20
256.4263119812421
 30
0.0
 10
-396.1236436832382
 20
256.1498867406635
 30
0.0
  0
LINE
  5
1923
102
{ACAD_REACTORS
330
1C03
102
}
330
A
100
AcDbEntity
  8
0
370
    13
100
AcDbLine
 10
-398.0967185335512
 20
163.5916484825469
 30
0.0
 11
-415.5771127026023
 21
163.5916484825469
 31
0.0
  0
LINE
  5
192B
102
{ACAD_REACTORS
330
1E7E
102
}
330
A
100
AcDbEntity
  8
0
370
    13
100
AcDbLine
 10
-413.1034159191743
 20
251.7838542790875
 30
0.0
 11
-413.1034159191743
 21
202.6741255366339
 31
0.0
  0
LINE
  5
193C
102
{ACAD_REACTORS
330
1C03
102
}
330
A
100
AcDbEntity
  8
0
370
    13
100
AcDbLine
 10
-401.2409608642824
 20
169.6521608244597
 30
0.0
 11
-412.3716041809315
 21
169.6521608244587
 31
0.0
  0
LINE
  5
1942
102
{ACAD_REACTORS
330
1C03
102
}
330
A
100
AcDbEntity
  8
0
370
    13
100
AcDbLine
 10
-415.5771127026023
 20
163.5916484825469
 30
0.0
 11
-415.5771127026023
 21
161.6197695414105
 31
0.0
  0
LINE
  5
1943
102
{ACAD_REACTORS
330
1C03
102
}
330
A
100
AcDbEntity
  8
0
370
    13
100
AcDbLine
 10
-410.8174049136525
 20
163.5916484825469
 30
0.0
 11
-410.8174049136525
 21
169.1509051750245
 31
0.0
  0
LINE
  5
1956
102
{ACAD_REACTORS
330
1E7E
102
}
330
A
100
AcDbEntity
  8
0
370
    13
100
AcDbLine
 10
-413.1034159191743
 20
202.6741255366339
 30
0.0
 11
-420.1760068397394
 21
202.6741255366339
 31
0.0
  0
LINE
  5
195C
102
{ACAD_REACTORS
330
1E7E
102
}
330
A
100
AcDbEntity
  8
0
370
    13
100
AcDbLine
 10
-420.3810193791055
 20
205.8029585749263
 30
0.0
 11
-420.4496985797931
 21
206.7545584451506
 31
0.0
  0
LINE
  5
195F
102
{ACAD_REACTORS
330
1E7E
102
}
330
A
100
AcDbEntity
  8
0
370
    13
100
AcDbLine
 10
-420.1760068397394
 20
202.6741255366339
 30
0.0
 11
-420.3130235535491
 21
204.7826795040143
 31
0.0
  0
LINE
  5
1975
102
{ACAD_REACTORS
330
1E7E
102
}
330
A
100
AcDbEntity
  8
0
370
    13
100
AcDbLine
 10
-420.9253276711225
 20
213.7608619779873
 30
0.0
 11
-420.9933234966789
 21
214.7818244240304
 31
0.0
  0
LINE
  5
197F
102
{ACAD_REACTORS
330
1E7E
102
}
330
A
100
AcDbEntity
  8
0
370
    13
100
AcDbLine
 10
-421.0620026973666
 20
215.8014201198113
 30
0.0
 11
-421.1289734602261
 21
216.7537033651668
 31
0.0
  0
LINE
  5
1998
102
{ACAD_REACTORS
330
1E7E
102
}
330
A
100
AcDbEntity
  8
0
370
    13
100
AcDbLine
 10
-421.6729400646776
 20
225.8005650398275
 30
0.0
 11
-421.7412775777996
 21
226.7528482851829
 31
0.0
  0
LINE
  5
1999
102
{ACAD_REACTORS
330
1E7E
102
}
330
A
100
AcDbEntity
  8
0
370
    13
100
AcDbLine
 10
-421.8765858537814
 20
225.5962358755926
 30
0.0
 11
-421.6729400646776
 21
225.8005650398275
 31
0.0
  0
LINE
  5
199A
102
{ACAD_REACTORS
330
1E7E
102
}
330
A
100
AcDbEntity
  8
0
370
    13
100
AcDbLine
 10
-421.6056276142523
 20
224.7809693440467
 30
0.0
 11
-421.809273403356
 21
224.9159359324627
 31
0.0
  0
LINE
  5
199B
102
{ACAD_REACTORS
330
1E7E
102
}
330
A
100
AcDbEntity
  8
0
370
    13
100
AcDbLine
 10
-421.537631788696
 20
223.7600068980034
 30
0.0
 11
-421.6056276142523
 21
224.7809693440467
 31
0.0
  0
LINE
  5
199E
102
{ACAD_REACTORS
330
1E7E
102
}
330
A
100
AcDbEntity
  8
0
370
    13
100
AcDbLine
 10
-421.4006150748863
 20
221.7871028941704
 30
0.0
 11
-421.4703193382708
 21
222.7404112022226
 31
0.0
  0
LINE
  5
19A1
102
{ACAD_REACTORS
330
1E7E
102
}
330
A
100
AcDbEntity
  8
0
370
    13
100
AcDbLine
 10
-421.2656484864702
 20
219.815223953034
 30
0.0
 11
-421.3333026244611
 21
220.7668238232583
 31
0.0
  0
LINE
  5
19A3
102
{ACAD_REACTORS
330
1E7E
102
}
330
A
100
AcDbEntity
  8
0
370
    13
100
AcDbLine
 10
-421.809273403356
 20
227.7738107312262
 30
0.0
 11
-421.8765858537814
 21
228.793406427007
 31
0.0
  0
LINE
  5
19A8
102
{ACAD_REACTORS
330
1E7E
102
}
330
A
100
AcDbEntity
  8
0
370
    13
100
AcDbLine
 10
-421.9281407688204
 20
225.1017504291611
 30
0.0
 11
-421.9688414964961
 21
225.3577379547967
 31
0.0
  0
LINE
  5
19BF
102
{ACAD_REACTORS
330
1E7E
102
}
330
A
100
AcDbEntity
  8
0
370
    13
100
AcDbLine
 10
-420.7883109573129
 20
211.7886413492854
 30
0.0
 11
-420.8580152206973
 21
212.7412662822066
 31
0.0
  0
LINE
  5
19C2
102
{ACAD_REACTORS
330
1E7E
102
}
330
A
100
AcDbEntity
  8
0
370
    13
100
AcDbLine
 10
-420.6533443688969
 20
209.7480832074614
 30
0.0
 11
-420.7209985068876
 21
210.7690456535046
 31
0.0
  0
LINE
  5
19C5
102
{ACAD_REACTORS
330
1E7E
102
}
330
A
100
AcDbEntity
  8
0
370
    13
100
AcDbLine
 10
-420.5173527177839
 20
207.776204266325
 30
0.0
 11
-420.5860319184715
 21
208.7284875116806
 31
0.0
  0
LINE
  5
19D7
102
{ACAD_REACTORS
330
1E7E
102
}
330
A
100
AcDbEntity
  8
0
370
    13
100
AcDbLine
 10
-423.4415149042757
 20
251.7838542790875
 30
0.0
 11
-413.1034159191743
 21
251.7838542790875
 31
0.0
  0
LINE
  5
19D8
102
{ACAD_REACTORS
330
1E7E
102
}
330
A
100
AcDbEntity
  8
0
370
    13
100
AcDbLine
 10
-423.3058649407285
 20
249.8102669001233
 30
0.0
 11
-423.4415149042757
 21
251.7838542790875
 31
0.0
  0
LINE
  5
19DF
102
{ACAD_REACTORS
330
1E7E
102
}
330
A
100
AcDbEntity
  8
0
370
    13
100
AcDbLine
 10
-422.4888899713546
 20
237.7715889009799
 30
0.0
 11
-422.5579108596078
 21
238.7252388965979
 31
0.0
  0
LINE
  5
19E2
102
{ACAD_REACTORS
330
1E7E
102
}
330
A
100
AcDbEntity
  8
0
370
    13
100
AcDbLine
 10
-422.353581695373
 20
235.7986848971468
 30
0.0
 11
-422.4215775209294
 21
236.7519932051991
 31
0.0
  0
LINE
  5
19E5
102
{ACAD_REACTORS
330
1E7E
102
}
330
A
100
AcDbEntity
  8
0
370
    13
100
AcDbLine
 10
-422.2179317318258
 20
233.7581267553228
 30
0.0
 11
-422.285244182251
 21
234.779089201366
 31
0.0
  0
LINE
  5
19E8
102
{ACAD_REACTORS
330
1E7E
102
}
330
A
100
AcDbEntity
  8
0
370
    13
100
AcDbLine
 10
-422.0815983931474
 20
231.7862478141865
 30
0.0
 11
-422.1506192814006
 21
232.738531059542
 31
0.0
  0
LINE
  5
19EB
102
{ACAD_REACTORS
330
1E7E
102
}
330
A
100
AcDbEntity
  8
0
370
    13
100
AcDbLine
 10
-421.9456067420345
 20
229.8143688730502
 30
0.0
 11
-422.0129191924598
 21
230.7652853681433
 31
0.0
  0
LINE
  5
1A09
102
{ACAD_REACTORS
330
1E7E
102
}
330
A
100
AcDbEntity
  8
0
370
    13
100
AcDbLine
 10
-423.0338816385029
 20
245.6614964784845
 30
0.0
 11
-423.1022191516249
 21
246.6151464741024
 31
0.0
  0
LINE
  5
1A0C
102
{ACAD_REACTORS
330
1E7E
102
}
330
A
100
AcDbEntity
  8
0
370
    13
100
AcDbLine
 10
-422.8975482998245
 20
243.8252675008954
 30
0.0
 11
-422.9658858129465
 21
244.6412174075725
 31
0.0
  0
LINE
  5
1A0F
102
{ACAD_REACTORS
330
1E7E
102
}
330
A
100
AcDbEntity
  8
0
370
    13
100
AcDbLine
 10
-422.7622400238427
 20
241.7853927342027
 30
0.0
 11
-422.8288690991369
 21
242.8049884299834
 31
0.0
  0
LINE
  5
1A12
102
{ACAD_REACTORS
330
1E7E
102
}
330
A
100
AcDbEntity
  8
0
370
    13
100
AcDbLine
 10
-422.6252233100332
 20
239.7448345923787
 30
0.0
 11
-422.6939025107208
 21
240.7644302881595
 31
0.0
  0
LINE
  5
1A13
102
{ACAD_REACTORS
330
1E7E
102
}
330
A
100
AcDbEntity
  8
0
370
    13
100
AcDbLine
 10
-423.1695316020501
 20
247.6347421698832
 30
0.0
 11
-423.3058649407285
 21
249.8102669001233
 31
0.0
  0
LINE
  5
1A2E
102
{ACAD_REACTORS
330
1C09
102
}
330
A
100
AcDbEntity
  8
0
370
    13
100
AcDbLine
 10
-414.9830888670921
 20
257.382674229182
 30
0.0
 11
-423.5532963877266
 21
257.382674229182
 31
0.0
  0
LINE
  5
1A30
102
{ACAD_REACTORS
330
1C09
102
}
330
A
100
AcDbEntity
  8
0
370
    13
100
AcDbLine
 10
-423.9253941466761
 20
263.0789476308817
 30
0.0
 11
-424.4693607511274
 21
263.5549184097766
 31
0.0
  0
LINE
  5
1A39
102
{ACAD_REACTORS
330
1C09
102
}
330
A
100
AcDbEntity
  8
0
370
    13
100
AcDbLine
 10
-424.4693607511274
 20
262.6022934768554
 30
0.0
 11
-423.9253941466761
 21
263.0789476308817
 31
0.0
  0
LINE
  5
1A3A
102
{ACAD_REACTORS
330
1C09
102
}
330
A
100
AcDbEntity
  8
0
370
    13
100
AcDbLine
 10
-423.9253941466761
 20
262.0586685599697
 30
0.0
 11
-424.4693607511274
 21
262.6022934768554
 31
0.0
  0
LINE
  5
1A3B
102
{ACAD_REACTORS
330
1C09
102
}
330
A
100
AcDbEntity
  8
0
370
    13
100
AcDbLine
 10
-424.4693607511274
 20
261.5826977810747
 30
0.0
 11
-423.9253941466761
 21
262.0586685599697
 31
0.0
  0
LINE
  5
1A3C
102
{ACAD_REACTORS
330
1C09
102
}
330
A
100
AcDbEntity
  8
0
370
    13
100
AcDbLine
 10
-423.9253941466761
 20
261.1063853146141
 30
0.0
 11
-424.4693607511274
 21
261.5826977810747
 31
0.0
  0
LINE
  5
1A3D
102
{ACAD_REACTORS
330
1C09
102
}
330
A
100
AcDbEntity
  8
0
370
    13
100
AcDbLine
 10
-424.4693607511274
 20
260.5624187101627
 30
0.0
 11
-423.9253941466761
 21
261.1063853146141
 31
0.0
  0
LINE
  5
1A3E
102
{ACAD_REACTORS
330
1C09
102
}
330
A
100
AcDbEntity
  8
0
370
    13
100
AcDbLine
 10
-423.9927065971011
 20
260.0861062437022
 30
0.0
 11
-424.4693607511274
 21
260.5624187101627
 31
0.0
  0
LINE
  5
1A3F
102
{ACAD_REACTORS
330
1C09
102
}
330
A
100
AcDbEntity
  8
0
370
    13
100
AcDbLine
 10
-424.0545520464766
 20
257.8842715754979
 30
0.0
 11
-423.8509062573729
 21
259.6648054753048
 31
0.0
  0
LINE
  5
1A40
102
{ACAD_REACTORS
330
1C09
102
}
330
A
100
AcDbEntity
  8
0
370
    13
100
AcDbLine
 10
-424.5520491420051
 20
267.5963989404014
 30
0.0
 11
-425.8443115151429
 21
267.5963989404014
 31
0.0
  0
LINE
  5
1A48
102
{ACAD_REACTORS
330
1C09
102
}
330
A
100
AcDbEntity
  8
0
370
    13
100
AcDbLine
 10
-424.4693607511274
 20
265.5954765516006
 30
0.0
 11
-424.197035761336
 21
265.8674598538262
 31
0.0
  0
LINE
  5
1A49
102
{ACAD_REACTORS
330
1C09
102
}
330
A
100
AcDbEntity
  8
0
370
    13
100
AcDbLine
 10
-423.9253941466761
 20
265.0515099471492
 30
0.0
 11
-424.4693607511274
 21
265.5954765516006
 31
0.0
  0
LINE
  5
1A4A
102
{ACAD_REACTORS
330
1C09
102
}
330
A
100
AcDbEntity
  8
0
370
    13
100
AcDbLine
 10
-424.4693607511274
 20
264.5758808558198
 30
0.0
 11
-423.9253941466761
 21
265.0515099471492
 31
0.0
  0
LINE
  5
1A4B
102
{ACAD_REACTORS
330
1C09
102
}
330
A
100
AcDbEntity
  8
0
370
    13
100
AcDbLine
 10
-423.9253941466761
 20
264.0992267017936
 30
0.0
 11
-424.4693607511274
 21
264.5758808558198
 31
0.0
  0
LINE
  5
1A4C
102
{ACAD_REACTORS
330
1C09
102
}
330
A
100
AcDbEntity
  8
0
370
    13
100
AcDbLine
 10
-424.4693607511274
 20
263.5549184097766
 30
0.0
 11
-423.9253941466761
 21
264.0992267017936
 31
0.0
  0
LINE
  5
1A4D
102
{ACAD_REACTORS
330
1C09
102
}
330
A
100
AcDbEntity
  8
0
370
    13
100
AcDbLine
 10
-424.0504517956892
 20
266.2221315469296
 30
0.0
 11
-424.0504517956892
 21
267.09445990652
 31
0.0
  0
LINE
  5
1A4F
102
{ACAD_REACTORS
330
1C09
102
}
330
A
100
AcDbEntity
  8
0
370
    13
100
AcDbLine
 10
-414.1869568392207
 20
264.7272484519728
 30
0.0
 11
-414.1869568392207
 21
263.9112985452957
 31
0.0
  0
LINE
  5
1A50
102
{ACAD_REACTORS
330
1C09
102
}
330
A
100
AcDbEntity
  8
0
370
    13
100
AcDbLine
 10
-414.1869568392205
 20
268.2770405710968
 30
0.0
 11
-414.1869568392205
 21
267.3924114637321
 31
0.0
  0
LINE
  5
1A72
102
{ACAD_REACTORS
330
1E11
102
}
330
A
100
AcDbEntity
  8
0
370
    13
100
AcDbLine
 10
-396.1236436832383
 20
177.9828666191192
 30
0.0
 11
-396.1236436832383
 21
256.1498867406635
 31
0.0
  0
LINE
  5
1A73
102
{ACAD_REACTORS
330
1E11
102
}
330
A
100
AcDbEntity
  8
0
370
    13
100
AcDbLine
 10
-395.1033646123263
 20
254.7896285419693
 30
0.0
 11
-395.1033646123263
 21
177.9828666191192
 31
0.0
  0
LINE
  5
1A7B
102
{ACAD_REACTORS
330
1C03
102
}
330
A
100
AcDbEntity
  8
0
370
    13
100
AcDbLine
 10
-398.0967185335512
 20
161.6197695414105
 30
0.0
 11
-398.0967185335512
 21
163.5916484825469
 31
0.0
  0
LINE
  5
1A7D
102
{ACAD_REACTORS
330
1E11
102
}
330
A
100
AcDbEntity
  8
0
370
    13
100
AcDbLine
 10
-395.1033646123263
 20
177.9828666191192
 30
0.0
 11
-396.1236436832383
 21
177.9828666191192
 31
0.0
  0
LINE
  5
1A88
102
{ACAD_REACTORS
330
1E11
102
}
330
A
100
AcDbEntity
  8
0
370
    13
100
AcDbLine
 10
-391.7339835278444
 20
254.4527246022778
 30
0.0
 11
-394.4548416127982
 21
255.2686745089549
 31
0.0
  0
LINE
  5
1A89
102
{ACAD_REACTORS
330
1E11
102
}
330
A
100
AcDbEntity
  8
0
370
    13
100
AcDbLine
 10
-395.4758040588415
 20
256.6292743952146
 30
0.0
 11
-391.4623419131842
 21
255.405349535199
 31
0.0
  0
LINE
  5
1A8A
102
{ACAD_REACTORS
330
1E10
102
}
330
A
100
AcDbEntity
  8
0
370
    13
100
AcDbLine
 10
-391.0434321164434
 20
257.3731064932943
 30
0.0
 11
-395.3968733898827
 21
257.3731064932943
 31
0.0
  0
LINE
  5
1A8C
102
{ACAD_REACTORS
330
1E10
102
}
330
A
100
AcDbEntity
  8
0
370
    13
100
AcDbLine
 10
-395.8977873610672
 20
257.8747038396101
 30
0.0
 11
-395.8977873610672
 21
268.8247652547194
 31
0.0
  0
LINE
  5
1A8D
102
{ACAD_REACTORS
330
1E10
102
}
330
A
100
AcDbEntity
  8
0
370
    13
100
AcDbLine
 10
-386.593634949502
 20
264.2811431904928
 30
0.0
 11
-386.593634949502
 21
260.7032131864475
 31
0.0
  0
LINE
  5
1A8E
102
{ACAD_REACTORS
330
1E10
102
}
330
A
100
AcDbEntity
  8
0
370
    13
100
AcDbLine
 10
-387.093634949502
 20
260.2032131864475
 30
0.0
 11
-388.1524136238158
 21
260.2032131864475
 31
0.0
  0
LINE
  5
1A90
102
{ACAD_REACTORS
330
1E11
102
}
330
A
100
AcDbEntity
  8
0
370
    13
100
AcDbLine
 10
-391.4623419131842
 20
255.405349535199
 30
0.0
 11
-391.7339835278444
 21
254.4527246022778
 31
0.0
  0
LINE
  5
1A91
102
{ACAD_REACTORS
330
1E10
102
}
330
A
100
AcDbEntity
  8
0
370
    13
100
AcDbLine
 10
-390.5418347701278
 20
260.9771355225546
 30
0.0
 11
-390.5418347701278
 21
257.87470383961
 31
0.0
  0
LINE
  5
1A92
102
{ACAD_REACTORS
330
1E10
102
}
330
A
100
AcDbEntity
  8
0
370
    13
100
AcDbLine
 10
-389.155950004013
 20
261.4787328688703
 30
0.0
 11
-390.0402374238121
 21
261.4787328688703
 31
0.0
  0
LINE
  5
1A93
102
{ACAD_REACTORS
330
1E10
102
}
330
A
100
AcDbEntity
  8
0
370
    13
100
AcDbLine
 10
-388.6540109701316
 20
260.7051522203289
 30
0.0
 11
-388.6540109701316
 21
260.9771355225546
 31
0.0
  0
LINE
  5
1A97
102
{ACAD_REACTORS
330
1E10
102
}
330
A
100
AcDbEntity
  8
0
370
    13
100
AcDbLine
 10
-387.9788363404857
 20
264.7811431904928
 30
0.0
 11
-387.093634949502
 21
264.7811431904928
 31
0.0
  0
LINE
  5
1A9A
102
{ACAD_REACTORS
330
1E10
102
}
330
A
100
AcDbEntity
  8
0
370
    13
100
AcDbLine
 10
-388.4804336868015
 20
264.0072208543857
 30
0.0
 11
-388.4804336868015
 21
264.2792041566114
 31
0.0
  0
LINE
  5
1A9B
102
{ACAD_REACTORS
330
1E10
102
}
330
A
100
AcDbEntity
  8
0
370
    13
100
AcDbLine
 10
-390.0023101040292
 20
263.5063068832012
 30
0.0
 11
-388.9823727206828
 21
263.5063068832012
 31
0.0
  0
LINE
  5
1A9C
102
{ACAD_REACTORS
330
1E10
102
}
330
A
100
AcDbEntity
  8
0
370
    13
100
AcDbLine
 10
-390.4929734482454
 20
267.094801110035
 30
0.0
 11
-390.4929734482454
 21
264.0079042295169
 31
0.0
  0
LINE
  5
1A9D
102
{ACAD_REACTORS
330
1E10
102
}
330
A
100
AcDbEntity
  8
0
370
    13
100
AcDbLine
 10
-388.7664261792171
 20
267.5967401439163
 30
0.0
 11
-389.991034414364
 21
267.5967401439163
 31
0.0
  0
LINE
  5
1B54
102
{ACAD_REACTORS
330
1C03
102
}
330
A
100
AcDbEntity
  8
0
370
    13
100
AcDbLine
 10
-398.0967185335512
 20
161.6197695414105
 30
0.0
 11
-415.5771127026023
 21
161.6197695414105
 31
0.0
  0
LINE
  5
1B55
102
{ACAD_REACTORS
330
1C03
102
}
330
A
100
AcDbEntity
  8
0
370
    13
100
AcDbLine
 10
-413.9257366980081
 20
163.5916484825469
 30
0.0
 11
-413.9257366980081
 21
169.1509051750245
 31
0.0
  0
LINE
  5
1B56
102
{ACAD_REACTORS
330
1C03
102
}
330
A
100
AcDbEntity
  8
0
370
    13
100
AcDbLine
 10
-399.7480945381454
 20
163.5916484825469
 30
0.0
 11
-399.7480945381454
 21
169.1509051750245
 31
0.0
  0
LINE
  5
1B57
102
{ACAD_REACTORS
330
1C03
102
}
330
A
100
AcDbEntity
  8
0
370
    13
100
AcDbLine
 10
-402.8564263225011
 20
163.5916484825469
 30
0.0
 11
-402.8564263225011
 21
169.1509051750245
 31
0.0
  0
SPLINE
  5
1B58
102
{ACAD_REACTORS
330
1C03
102
}
330
A
100
AcDbEntity
  8
0
370
    13
100
AcDbSpline
210
0.0
220
0.0
230
1.0
 70
     8
 71
     3
 72
     8
 73
     4
 74
     0
 42
0.0000000001
 43
0.0000000001
 40
0.0
 40
0.0
 40
0.0
 40
0.0
 40
1.0
 40
1.0
 40
1.0
 40
1.0
 10
-402.856426322501
 20
169.1509051750245
 30
0.0
 10
-401.9277195191726
 20
169.8192460533579
 30
0.0
 10
-400.6761179663426
 20
169.8192460533579
 30
0.0
 10
-399.7480945381454
 20
169.1509051750245
 30
0.0
  0
ARC
  5
1B59
102
{ACAD_REACTORS
330
1C03
102
}
330
A
100
AcDbEntity
  8
0
370
    13
100
AcDbCircle
 10
-406.8369156180768
 20
153.5978640899531
 30
0.0
 40
16.05432595988109
100
AcDbArc
 50
75.64442930541405
 51
104.3555706945859
  0
LINE
  5
1B5B
102
{ACAD_REACTORS
330
1C03
102
}
330
A
100
AcDbEntity
  8
0
370
    13
100
AcDbLine
 10
-410.8369156180768
 20
76.19389528041152
 30
0.0
 11
-409.611282320233
 21
71.61976954141059
 31
0.0
  0
LINE
  5
1B68
102
{ACAD_REACTORS
330
1C03
102
}
330
A
100
AcDbEntity
  8
0
370
    13
100
AcDbLine
 10
-410.8369156180768
 20
161.6197695414105
 30
0.0
 11
-410.8369156180768
 21
119.7712455496011
 31
0.0
  0
LINE
  5
1B69
102
{ACAD_REACTORS
330
1C03
102
}
330
A
100
AcDbEntity
  8
0
370
    13
100
AcDbLine
 10
-402.8369156180768
 20
161.6197695414105
 30
0.0
 11
-402.8369156180768
 21
124.3900477031182
 31
0.0
  0
LINE
  5
1B6A
102
{ACAD_REACTORS
330
1C03
102
}
330
A
100
AcDbEntity
  8
0
370
    13
100
AcDbLine
 10
-402.8369156180768
 20
76.19389528041152
 30
0.0
 11
-404.0625489159204
 21
71.61976954141059
 31
0.0
  0
LINE
  5
1B6C
102
{ACAD_REACTORS
330
1C03
102
}
330
A
100
AcDbEntity
  8
0
370
    13
100
AcDbLine
 10
-404.0625489159204
 20
71.61976954141057
 30
0.0
 11
-409.611282320233
 21
71.61976954141059
 31
0.0
  0
LINE
  5
1BB8
102
{ACAD_REACTORS
330
1BBF
330
1C03
102
}
330
A
100
AcDbEntity
  8
0
370
    13
100
AcDbLine
 10
-401.5869156180768
 20
82.53438527041561
 30
0.0
 11
-412.0869156180768
 21
76.4722074439245
 31
0.0
  0
LINE
  5
1BB9
102
{ACAD_REACTORS
330
1BBF
330
1C03
102
}
330
A
100
AcDbEntity
  8
0
370
    13
100
AcDbLine
 10
-402.8369156180768
 20
81.23534716473889
 30
0.0
 11
-410.8369156180768
 21
76.61654501122192
 31
0.0
  0
LINE
  5
1BBA
102
{ACAD_REACTORS
330
1BBF
330
1C03
102
}
330
A
100
AcDbEntity
  8
0
370
    13
100
AcDbLine
 10
-402.8369156180768
 20
82.3900477031182
 30
0.0
 11
-410.8369156180768
 21
77.77124554960114
 31
0.0
  0
LINE
  5
1BBB
102
{ACAD_REACTORS
330
1BBF
330
1C03
102
}
330
A
100
AcDbEntity
  8
0
370
    13
100
AcDbLine
 10
-401.5869156180768
 20
82.53438527041561
 30
0.0
 11
-402.8369156180768
 21
81.23534716473896
 31
0.0
  0
LINE
  5
1BBC
102
{ACAD_REACTORS
330
1BBF
330
1C03
102
}
330
A
100
AcDbEntity
  8
0
370
    13
100
AcDbLine
 10
-401.5869156180768
 20
82.53438527041561
 30
0.0
 11
-402.8369156180768
 21
82.3900477031182
 31
0.0
  0
LINE
  5
1BBD
102
{ACAD_REACTORS
330
1BBF
330
1C03
102
}
330
A
100
AcDbEntity
  8
0
370
    13
100
AcDbLine
 10
-412.0869156180768
 20
76.4722074439245
 30
0.0
 11
-410.8369156180768
 21
76.61654501122192
 31
0.0
  0
LINE
  5
1BBE
102
{ACAD_REACTORS
330
1BBF
330
1C03
102
}
330
A
100
AcDbEntity
  8
0
370
    13
100
AcDbLine
 10
-412.0869156180768
 20
76.4722074439245
 30
0.0
 11
-410.8369156180768
 21
77.77124554960114
 31
0.0
  0
LINE
  5
1BC5
102
{ACAD_REACTORS
330
1BCC
330
1C03
102
}
330
A
100
AcDbEntity
  8
0
370
    13
100
AcDbLine
 10
-401.5869156180768
 20
89.5343852704156
 30
0.0
 11
-412.0869156180768
 21
83.47220744392449
 31
0.0
  0
LINE
  5
1BC6
102
{ACAD_REACTORS
330
1BCC
330
1C03
102
}
330
A
100
AcDbEntity
  8
0
370
    13
100
AcDbLine
 10
-402.8369156180768
 20
88.2353471647389
 30
0.0
 11
-410.8369156180768
 21
83.61654501122192
 31
0.0
  0
LINE
  5
1BC7
102
{ACAD_REACTORS
330
1BCC
330
1C03
102
}
330
A
100
AcDbEntity
  8
0
370
    13
100
AcDbLine
 10
-402.8369156180768
 20
89.3900477031182
 30
0.0
 11
-410.8369156180768
 21
84.77124554960113
 31
0.0
  0
LINE
  5
1BC8
102
{ACAD_REACTORS
330
1BCC
330
1C03
102
}
330
A
100
AcDbEntity
  8
0
370
    13
100
AcDbLine
 10
-401.5869156180768
 20
89.5343852704156
 30
0.0
 11
-402.8369156180768
 21
88.23534716473895
 31
0.0
  0
LINE
  5
1BC9
102
{ACAD_REACTORS
330
1BCC
330
1C03
102
}
330
A
100
AcDbEntity
  8
0
370
    13
100
AcDbLine
 10
-401.5869156180768
 20
89.5343852704156
 30
0.0
 11
-402.8369156180768
 21
89.3900477031182
 31
0.0
  0
LINE
  5
1BCA
102
{ACAD_REACTORS
330
1BCC
330
1C03
102
}
330
A
100
AcDbEntity
  8
0
370
    13
100
AcDbLine
 10
-412.0869156180768
 20
83.47220744392449
 30
0.0
 11
-410.8369156180768
 21
83.61654501122192
 31
0.0
  0
LINE
  5
1BCB
102
{ACAD_REACTORS
330
1BCC
330
1C03
102
}
330
A
100
AcDbEntity
  8
0
370
    13
100
AcDbLine
 10
-412.0869156180768
 20
83.47220744392449
 30
0.0
 11
-410.8369156180768
 21
84.77124554960113
 31
0.0
  0
LINE
  5
1BCD
102
{ACAD_REACTORS
330
1BD4
330
1C03
102
}
330
A
100
AcDbEntity
  8
0
370
    13
100
AcDbLine
 10
-402.8369156180768
 20
95.23534716473889
 30
0.0
 11
-410.8369156180768
 21
90.61654501122191
 31
0.0
  0
LINE
  5
1BCE
102
{ACAD_REACTORS
330
1BD4
330
1C03
102
}
330
A
100
AcDbEntity
  8
0
370
    13
100
AcDbLine
 10
-401.5869156180768
 20
96.53438527041561
 30
0.0
 11
-412.0869156180768
 21
90.47220744392451
 31
0.0
  0
LINE
  5
1BCF
102
{ACAD_REACTORS
330
1BD4
330
1C03
102
}
330
A
100
AcDbEntity
  8
0
370
    13
100
AcDbLine
 10
-402.8369156180768
 20
96.39004770311821
 30
0.0
 11
-410.8369156180768
 21
91.77124554960114
 31
0.0
  0
LINE
  5
1BD0
102
{ACAD_REACTORS
330
1BD4
330
1C03
102
}
330
A
100
AcDbEntity
  8
0
370
    13
100
AcDbLine
 10
-401.5869156180768
 20
96.53438527041561
 30
0.0
 11
-402.8369156180768
 21
95.23534716473895
 31
0.0
  0
LINE
  5
1BD1
102
{ACAD_REACTORS
330
1BD4
330
1C03
102
}
330
A
100
AcDbEntity
  8
0
370
    13
100
AcDbLine
 10
-401.5869156180768
 20
96.53438527041561
 30
0.0
 11
-402.8369156180768
 21
96.39004770311821
 31
0.0
  0
LINE
  5
1BD2
102
{ACAD_REACTORS
330
1BD4
330
1C03
102
}
330
A
100
AcDbEntity
  8
0
370
    13
100
AcDbLine
 10
-412.0869156180768
 20
90.47220744392451
 30
0.0
 11
-410.8369156180768
 21
90.61654501122191
 31
0.0
  0
LINE
  5
1BD3
102
{ACAD_REACTORS
330
1BD4
330
1C03
102
}
330
A
100
AcDbEntity
  8
0
370
    13
100
AcDbLine
 10
-412.0869156180768
 20
90.47220744392451
 30
0.0
 11
-410.8369156180768
 21
91.77124554960114
 31
0.0
  0
LINE
  5
1BD5
102
{ACAD_REACTORS
330
1BDC
330
1C03
102
}
330
A
100
AcDbEntity
  8
0
370
    13
100
AcDbLine
 10
-402.8369156180768
 20
103.3900477031181
 30
0.0
 11
-410.8369156180768
 21
98.77124554960113
 31
0.0
  0
LINE
  5
1BD6
102
{ACAD_REACTORS
330
1BDC
330
1C03
102
}
330
A
100
AcDbEntity
  8
0
370
    13
100
AcDbLine
 10
-401.5869156180768
 20
103.5343852704156
 30
0.0
 11
-412.0869156180768
 21
97.4722074439245
 31
0.0
  0
LINE
  5
1BD7
102
{ACAD_REACTORS
330
1BDC
330
1C03
102
}
330
A
100
AcDbEntity
  8
0
370
    13
100
AcDbLine
 10
-402.8369156180768
 20
102.2353471647388
 30
0.0
 11
-410.8369156180768
 21
97.61654501122192
 31
0.0
  0
LINE
  5
1BD8
102
{ACAD_REACTORS
330
1BDC
330
1C03
102
}
330
A
100
AcDbEntity
  8
0
370
    13
100
AcDbLine
 10
-401.5869156180768
 20
103.5343852704156
 30
0.0
 11
-402.8369156180768
 21
102.2353471647389
 31
0.0
  0
LINE
  5
1BD9
102
{ACAD_REACTORS
330
1BDC
330
1C03
102
}
330
A
100
AcDbEntity
  8
0
370
    13
100
AcDbLine
 10
-401.5869156180768
 20
103.5343852704156
 30
0.0
 11
-402.8369156180768
 21
103.3900477031181
 31
0.0
  0
LINE
  5
1BDA
102
{ACAD_REACTORS
330
1BDC
330
1C03
102
}
330
A
100
AcDbEntity
  8
0
370
    13
100
AcDbLine
 10
-412.0869156180768
 20
97.4722074439245
 30
0.0
 11
-410.8369156180768
 21
97.61654501122192
 31
0.0
  0
LINE
  5
1BDB
102
{ACAD_REACTORS
330
1BDC
330
1C03
102
}
330
A
100
AcDbEntity
  8
0
370
    13
100
AcDbLine
 10
-412.0869156180768
 20
97.4722074439245
 30
0.0
 11
-410.8369156180768
 21
98.77124554960113
 31
0.0
  0
LINE
  5
1BDD
102
{ACAD_REACTORS
330
1BE4
330
1C03
102
}
330
A
100
AcDbEntity
  8
0
370
    13
100
AcDbLine
 10
-401.5869156180768
 20
110.5343852704156
 30
0.0
 11
-412.0869156180768
 21
104.4722074439245
 31
0.0
  0
LINE
  5
1BDE
102
{ACAD_REACTORS
330
1BE4
330
1C03
102
}
330
A
100
AcDbEntity
  8
0
370
    13
100
AcDbLine
 10
-402.8369156180768
 20
110.3900477031181
 30
0.0
 11
-410.8369156180768
 21
105.7712455496011
 31
0.0
  0
LINE
  5
1BDF
102
{ACAD_REACTORS
330
1BE4
330
1C03
102
}
330
A
100
AcDbEntity
  8
0
370
    13
100
AcDbLine
 10
-402.8369156180768
 20
109.2353471647389
 30
0.0
 11
-410.8369156180768
 21
104.6165450112219
 31
0.0
  0
LINE
  5
1BE0
102
{ACAD_REACTORS
330
1BE4
330
1C03
102
}
330
A
100
AcDbEntity
  8
0
370
    13
100
AcDbLine
 10
-401.5869156180768
 20
110.5343852704156
 30
0.0
 11
-402.8369156180768
 21
109.2353471647389
 31
0.0
  0
LINE
  5
1BE1
102
{ACAD_REACTORS
330
1BE4
330
1C03
102
}
330
A
100
AcDbEntity
  8
0
370
    13
100
AcDbLine
 10
-401.5869156180768
 20
110.5343852704156
 30
0.0
 11
-402.8369156180768
 21
110.3900477031181
 31
0.0
  0
LINE
  5
1BE2
102
{ACAD_REACTORS
330
1BE4
330
1C03
102
}
330
A
100
AcDbEntity
  8
0
370
    13
100
AcDbLine
 10
-412.0869156180768
 20
104.4722074439245
 30
0.0
 11
-410.8369156180768
 21
104.6165450112219
 31
0.0
  0
LINE
  5
1BE3
102
{ACAD_REACTORS
330
1BE4
330
1C03
102
}
330
A
100
AcDbEntity
  8
0
370
    13
100
AcDbLine
 10
-412.0869156180768
 20
104.4722074439245
 30
0.0
 11
-410.8369156180768
 21
105.7712455496011
 31
0.0
  0
LINE
  5
1BE5
102
{ACAD_REACTORS
330
1BEC
330
1C03
102
}
330
A
100
AcDbEntity
  8
0
370
    13
100
AcDbLine
 10
-402.8369156180768
 20
116.2353471647388
 30
0.0
 11
-410.8369156180768
 21
111.6165450112219
 31
0.0
  0
LINE
  5
1BE6
102
{ACAD_REACTORS
330
1BEC
330
1C03
102
}
330
A
100
AcDbEntity
  8
0
370
    13
100
AcDbLine
 10
-402.8369156180768
 20
117.3900477031182
 30
0.0
 11
-410.8369156180768
 21
112.7712455496011
 31
0.0
  0
LINE
  5
1BE7
102
{ACAD_REACTORS
330
1BEC
330
1C03
102
}
330
A
100
AcDbEntity
  8
0
370
    13
100
AcDbLine
 10
-401.5869156180768
 20
117.5343852704156
 30
0.0
 11
-412.0869156180768
 21
111.4722074439244
 31
0.0
  0
LINE
  5
1BE8
102
{ACAD_REACTORS
330
1BEC
330
1C03
102
}
330
A
100
AcDbEntity
  8
0
370
    13
100
AcDbLine
 10
-401.5869156180768
 20
117.5343852704156
 30
0.0
 11
-402.8369156180768
 21
116.2353471647389
 31
0.0
  0
LINE
  5
1BE9
102
{ACAD_REACTORS
330
1BEC
330
1C03
102
}
330
A
100
AcDbEntity
  8
0
370
    13
100
AcDbLine
 10
-401.5869156180768
 20
117.5343852704156
 30
0.0
 11
-402.8369156180768
 21
117.3900477031182
 31
0.0
  0
LINE
  5
1BEA
102
{ACAD_REACTORS
330
1BEC
330
1C03
102
}
330
A
100
AcDbEntity
  8
0
370
    13
100
AcDbLine
 10
-412.0869156180768
 20
111.4722074439244
 30
0.0
 11
-410.8369156180768
 21
111.6165450112219
 31
0.0
  0
LINE
  5
1BEB
102
{ACAD_REACTORS
330
1BEC
330
1C03
102
}
330
A
100
AcDbEntity
  8
0
370
    13
100
AcDbLine
 10
-412.0869156180768
 20
111.4722074439244
 30
0.0
 11
-410.8369156180768
 21
112.7712455496011
 31
0.0
  0
LINE
  5
1BED
102
{ACAD_REACTORS
330
1BF4
330
1C03
102
}
330
A
100
AcDbEntity
  8
0
370
    13
100
AcDbLine
 10
-401.5869156180768
 20
124.5343852704156
 30
0.0
 11
-412.0869156180768
 21
118.4722074439245
 31
0.0
  0
LINE
  5
1BEE
102
{ACAD_REACTORS
330
1BF4
330
1C03
102
}
330
A
100
AcDbEntity
  8
0
370
    13
100
AcDbLine
 10
-402.8369156180768
 20
124.3900477031182
 30
0.0
 11
-410.8369156180768
 21
119.7712455496011
 31
0.0
  0
LINE
  5
1BEF
102
{ACAD_REACTORS
330
1BF4
330
1C03
102
}
330
A
100
AcDbEntity
  8
0
370
    13
100
AcDbLine
 10
-402.8369156180768
 20
123.2353471647388
 30
0.0
 11
-410.8369156180768
 21
118.6165450112219
 31
0.0
  0
LINE
  5
1BF0
102
{ACAD_REACTORS
330
1BF4
330
1C03
102
}
330
A
100
AcDbEntity
  8
0
370
    13
100
AcDbLine
 10
-401.5869156180768
 20
124.5343852704156
 30
0.0
 11
-402.8369156180768
 21
123.2353471647389
 31
0.0
  0
LINE
  5
1BF1
102
{ACAD_REACTORS
330
1BF4
330
1C03
102
}
330
A
100
AcDbEntity
  8
0
370
    13
100
AcDbLine
 10
-401.5869156180768
 20
124.5343852704156
 30
0.0
 11
-402.8369156180768
 21
124.3900477031182
 31
0.0
  0
LINE
  5
1BF2
102
{ACAD_REACTORS
330
1BF4
330
1C03
102
}
330
A
100
AcDbEntity
  8
0
370
    13
100
AcDbLine
 10
-412.0869156180768
 20
118.4722074439245
 30
0.0
 11
-410.8369156180768
 21
118.6165450112219
 31
0.0
  0
LINE
  5
1BF3
102
{ACAD_REACTORS
330
1BF4
330
1C03
102
}
330
A
100
AcDbEntity
  8
0
370
    13
100
AcDbLine
 10
-412.0869156180768
 20
118.4722074439245
 30
0.0
 11
-410.8369156180768
 21
119.7712455496011
 31
0.0
  0
LINE
  5
1BF5
102
{ACAD_REACTORS
330
1C03
102
}
330
A
100
AcDbEntity
  8
0
370
    13
100
AcDbLine
 10
-410.8369156180768
 20
76.6165450112219
 30
0.0
 11
-410.8369156180768
 21
76.19389528041164
 31
0.0
  0
LINE
  5
1BF6
102
{ACAD_REACTORS
330
1C03
102
}
330
A
100
AcDbEntity
  8
0
370
    13
100
AcDbLine
 10
-402.8369156180768
 20
81.23534716473887
 30
0.0
 11
-402.8369156180768
 21
76.19389528041144
 31
0.0
  0
LINE
  5
1BF7
102
{ACAD_REACTORS
330
1C03
102
}
330
A
100
AcDbEntity
  8
0
370
    13
100
AcDbLine
 10
-410.8369156180768
 20
83.61654501122188
 30
0.0
 11
-410.8369156180768
 21
77.77124554960117
 31
0.0
  0
LINE
  5
1BF8
102
{ACAD_REACTORS
330
1C03
102
}
330
A
100
AcDbEntity
  8
0
370
    13
100
AcDbLine
 10
-402.8369156180768
 20
88.23534716473892
 30
0.0
 11
-402.8369156180768
 21
82.39004770311819
 31
0.0
  0
LINE
  5
1BF9
102
{ACAD_REACTORS
330
1C03
102
}
330
A
100
AcDbEntity
  8
0
370
    13
100
AcDbLine
 10
-410.8369156180768
 20
90.61654501122189
 30
0.0
 11
-410.8369156180768
 21
84.77124554960113
 31
0.0
  0
LINE
  5
1BFA
102
{ACAD_REACTORS
330
1C03
102
}
330
A
100
AcDbEntity
  8
0
370
    13
100
AcDbLine
 10
-402.8369156180768
 20
95.23534716473889
 30
0.0
 11
-402.8369156180768
 21
89.3900477031182
 31
0.0
  0
LINE
  5
1BFB
102
{ACAD_REACTORS
330
1C03
102
}
330
A
100
AcDbEntity
  8
0
370
    13
100
AcDbLine
 10
-410.8369156180768
 20
97.61654501122187
 30
0.0
 11
-410.8369156180768
 21
91.77124554960114
 31
0.0
  0
LINE
  5
1BFC
102
{ACAD_REACTORS
330
1C03
102
}
330
A
100
AcDbEntity
  8
0
370
    13
100
AcDbLine
 10
-402.8369156180768
 20
102.2353471647388
 30
0.0
 11
-402.8369156180768
 21
96.39004770311817
 31
0.0
  0
LINE
  5
1BFD
102
{ACAD_REACTORS
330
1C03
102
}
330
A
100
AcDbEntity
  8
0
370
    13
100
AcDbLine
 10
-410.8369156180768
 20
104.6165450112218
 30
0.0
 11
-410.8369156180768
 21
98.77124554960104
 31
0.0
  0
LINE
  5
1BFE
102
{ACAD_REACTORS
330
1C03
102
}
330
A
100
AcDbEntity
  8
0
370
    13
100
AcDbLine
 10
-402.8369156180768
 20
109.2353471647389
 30
0.0
 11
-402.8369156180768
 21
103.3900477031181
 31
0.0
  0
LINE
  5
1BFF
102
{ACAD_REACTORS
330
1C03
102
}
330
A
100
AcDbEntity
  8
0
370
    13
100
AcDbLine
 10
-410.8369156180768
 20
111.6165450112219
 30
0.0
 11
-410.8369156180768
 21
105.771245549601
 31
0.0
  0
LINE
  5
1C00
102
{ACAD_REACTORS
330
1C03
102
}
330
A
100
AcDbEntity
  8
0
370
    13
100
AcDbLine
 10
-402.8369156180768
 20
116.2353471647388
 30
0.0
 11
-402.8369156180768
 21
110.3900477031181
 31
0.0
  0
LINE
  5
1C01
102
{ACAD_REACTORS
330
1C03
102
}
330
A
100
AcDbEntity
  8
0
370
    13
100
AcDbLine
 10
-402.8369156180768
 20
123.2353471647388
 30
0.0
 11
-402.8369156180768
 21
117.3900477031182
 31
0.0
  0
LINE
  5
1C02
102
{ACAD_REACTORS
330
1C03
102
}
330
A
100
AcDbEntity
  8
0
370
    13
100
AcDbLine
 10
-410.8369156180768
 20
118.6165450112219
 30
0.0
 11
-410.8369156180768
 21
112.771245549601
 31
0.0
  0
LINE
  5
1C06
102
{ACAD_REACTORS
330
1C09
102
}
330
A
100
AcDbEntity
  8
0
370
    13
100
AcDbLine
 10
-414.2026744672386
 20
260.4288188765967
 30
0.0
 11
-414.2026744672386
 21
261.2002323296288
 31
0.0
  0
ARC
  5
1C07
102
{ACAD_REACTORS
330
1C09
102
}
330
A
100
AcDbEntity
  8
0
370
    13
100
AcDbCircle
 10
-405.2031547860887
 20
255.7053400254624
 30
0.0
 40
10.62105114326776
100
AcDbArc
 50
128.0378156171929
 51
147.1175560245156
  0
ARC
  5
1C08
102
{ACAD_REACTORS
330
1C09
102
}
330
A
100
AcDbEntity
  8
0
370
    13
100
AcDbCircle
 10
-413.7026744672386
 20
261.2002323296288
 30
0.0
 40
0.5
100
AcDbArc
 50
147.1175560245183
 51
180.0
  0
ARC
  5
1E0E
102
{ACAD_REACTORS
330
1E10
102
}
330
A
100
AcDbEntity
  8
0
370
    13
100
AcDbCircle
 10
-387.093634949502
 20
264.2811431904928
 30
0.0
 40
0.5
100
AcDbArc
 50
0.0
 51
90.0
  0
ARC
  5
1E0F
102
{ACAD_REACTORS
330
1E10
102
}
330
A
100
AcDbEntity
  8
0
370
    13
100
AcDbCircle
 10
-387.093634949502
 20
260.7032131864475
 30
0.0
 40
0.5
100
AcDbArc
 50
270.0
 51
0.0
  0
SPLINE
  5
1E13
102
{ACAD_REACTORS
330
1E7E
102
}
330
A
100
AcDbEntity
  8
0
370
    13
100
AcDbSpline
210
0.0
220
0.0
230
1.0
 70
     8
 71
     3
 72
     8
 73
     4
 74
     0
 42
0.0000000001
 43
0.0000000001
 40
0.052389709071199
 40
0.052389709071199
 40
0.052389709071199
 40
0.052389709071199
 40
1.0
 40
1.0
 40
1.0
 40
1.0
 10
-421.7928324928387
 20
223.0611922873371
 30
0.0
 10
-421.7869098282823
 20
223.0015587588366
 30
0.0
 10
-421.7416365379464
 20
222.9258885085776
 30
0.0
 10
-421.6739651273744
 20
222.8753777906387
 30
0.0
  0
SPLINE
  5
1E14
102
{ACAD_REACTORS
330
1E7E
102
}
330
A
100
AcDbEntity
  8
0
370
    13
100
AcDbSpline
210
0.0
220
0.0
230
1.0
 70
     8
 71
     3
 72
     8
 73
     4
 74
     0
 42
0.0000000001
 43
0.0000000001
 40
0.0
 40
0.0
 40
0.0
 40
0.0
 40
1.0
 40
1.0
 40
1.0
 40
1.0
 10
-421.7412775777996
 20
223.5556777337685
 30
0.0
 10
-421.8055148401344
 20
223.4928072216963
 30
0.0
 10
-421.8396835966954
 20
223.4067019551625
 30
0.0
 10
-421.8335332205144
 20
223.3171798129727
 30
0.0
  0
LINE
  5
1E15
102
{ACAD_REACTORS
330
1E7E
102
}
330
A
100
AcDbEntity
  8
0
370
    13
100
AcDbLine
 10
-421.7928324928387
 20
223.0611922873371
 30
0.0
 11
-421.8335332205144
 21
223.3171798129727
 31
0.0
  0
LINE
  5
1E16
102
{ACAD_REACTORS
330
1E7E
102
}
330
A
100
AcDbEntity
  8
0
370
    13
100
AcDbLine
 10
-421.7412775777996
 20
223.5556777337686
 30
0.0
 11
-421.537631788696
 21
223.7600068980034
 31
0.0
  0
LINE
  5
1E17
102
{ACAD_REACTORS
330
1E7E
102
}
330
A
100
AcDbEntity
  8
0
370
    13
100
AcDbLine
 10
-421.4703193382708
 20
222.7404112022226
 30
0.0
 11
-421.6739651273743
 21
222.8753777906387
 31
0.0
  0
SPLINE
  5
1E18
102
{ACAD_REACTORS
330
1E7E
102
}
330
A
100
AcDbEntity
  8
0
370
    13
100
AcDbSpline
210
0.0
220
0.0
230
1.0
 70
     8
 71
     3
 72
     8
 73
     4
 74
     0
 42
0.0000000001
 43
0.0000000001
 40
0.052389709071199
 40
0.052389709071199
 40
0.052389709071199
 40
0.052389709071199
 40
1.0
 40
1.0
 40
1.0
 40
1.0
 10
-421.6558157790291
 20
221.0882882835041
 30
0.0
 10
-421.6498931144726
 20
221.0286547550035
 30
0.0
 10
-421.6046198241368
 20
220.9529845047446
 30
0.0
 10
-421.5369484135647
 20
220.9024737868057
 30
0.0
  0
SPLINE
  5
1E19
102
{ACAD_REACTORS
330
1E7E
102
}
330
A
100
AcDbEntity
  8
0
370
    13
100
AcDbSpline
210
0.0
220
0.0
230
1.0
 70
     8
 71
     3
 72
     8
 73
     4
 74
     0
 42
0.0000000001
 43
0.0000000001
 40
0.0
 40
0.0
 40
0.0
 40
0.0
 40
1.0
 40
1.0
 40
1.0
 40
1.0
 10
-421.60426086399
 20
221.5827737299355
 30
0.0
 10
-421.6684981263248
 20
221.5199032178632
 30
0.0
 10
-421.7026668828857
 20
221.4337979513294
 30
0.0
 10
-421.6965165067048
 20
221.3442758091396
 30
0.0
  0
LINE
  5
1E1A
102
{ACAD_REACTORS
330
1E7E
102
}
330
A
100
AcDbEntity
  8
0
370
    13
100
AcDbLine
 10
-421.6558157790291
 20
221.0882882835041
 30
0.0
 11
-421.6965165067048
 21
221.3442758091396
 31
0.0
  0
LINE
  5
1E1B
102
{ACAD_REACTORS
330
1E7E
102
}
330
A
100
AcDbEntity
  8
0
370
    13
100
AcDbLine
 10
-421.60426086399
 20
221.5827737299355
 30
0.0
 11
-421.4006150748863
 21
221.7871028941704
 31
0.0
  0
LINE
  5
1E1C
102
{ACAD_REACTORS
330
1E7E
102
}
330
A
100
AcDbEntity
  8
0
370
    13
100
AcDbLine
 10
-421.3333026244611
 20
220.7675071983896
 30
0.0
 11
-421.5369484135647
 21
220.9024737868057
 31
0.0
  0
SPLINE
  5
1E1D
102
{ACAD_REACTORS
330
1E7E
102
}
330
A
100
AcDbEntity
  8
0
370
    13
100
AcDbSpline
210
0.0
220
0.0
230
1.0
 70
     8
 71
     3
 72
     8
 73
     4
 74
     0
 42
0.0000000001
 43
0.0000000001
 40
0.052389709071199
 40
0.052389709071199
 40
0.052389709071199
 40
0.052389709071199
 40
1.0
 40
1.0
 40
1.0
 40
1.0
 10
-421.520849190613
 20
219.1164093423676
 30
0.0
 10
-421.5149265260565
 20
219.0567758138671
 30
0.0
 10
-421.4696532357208
 20
218.9811055636082
 30
0.0
 10
-421.4019818251487
 20
218.9305948456692
 30
0.0
  0
SPLINE
  5
1E1E
102
{ACAD_REACTORS
330
1E7E
102
}
330
A
100
AcDbEntity
  8
0
370
    13
100
AcDbSpline
210
0.0
220
0.0
230
1.0
 70
     8
 71
     3
 72
     8
 73
     4
 74
     0
 42
0.0000000001
 43
0.0000000001
 40
0.0
 40
0.0
 40
0.0
 40
0.0
 40
1.0
 40
1.0
 40
1.0
 40
1.0
 10
-421.469294275574
 20
219.610894788799
 30
0.0
 10
-421.5335315379087
 20
219.5480242767268
 30
0.0
 10
-421.5677002944696
 20
219.461919010193
 30
0.0
 10
-421.5615499182887
 20
219.3723968680032
 30
0.0
  0
LINE
  5
1E1F
102
{ACAD_REACTORS
330
1E7E
102
}
330
A
100
AcDbEntity
  8
0
370
    13
100
AcDbLine
 10
-421.520849190613
 20
219.1164093423676
 30
0.0
 11
-421.5615499182887
 21
219.3723968680032
 31
0.0
  0
LINE
  5
1E20
102
{ACAD_REACTORS
330
1E7E
102
}
330
A
100
AcDbEntity
  8
0
370
    13
100
AcDbLine
 10
-421.469294275574
 20
219.6108947887991
 30
0.0
 11
-421.2656484864702
 21
219.815223953034
 31
0.0
  0
LINE
  5
1E21
102
{ACAD_REACTORS
330
1E7E
102
}
330
A
100
AcDbEntity
  8
0
370
    13
100
AcDbLine
 10
-421.1983360360449
 20
218.7956282572532
 30
0.0
 11
-421.4019818251487
 21
218.9305948456692
 31
0.0
  0
SPLINE
  5
1E22
102
{ACAD_REACTORS
330
1E7E
102
}
330
A
100
AcDbEntity
  8
0
370
    13
100
AcDbSpline
210
0.0
220
0.0
230
1.0
 70
     8
 71
     3
 72
     8
 73
     4
 74
     0
 42
0.0000000001
 43
0.0000000001
 40
0.052389709071199
 40
0.052389709071199
 40
0.052389709071199
 40
0.052389709071199
 40
1.0
 40
1.0
 40
1.0
 40
1.0
 10
-421.4521699899254
 20
217.0758512005437
 30
0.0
 10
-421.4462473253689
 20
217.0162176720431
 30
0.0
 10
-421.4009740350331
 20
216.9405474217842
 30
0.0
 10
-421.3333026244611
 20
216.8900367038453
 30
0.0
  0
SPLINE
  5
1E23
102
{ACAD_REACTORS
330
1E7E
102
}
330
A
100
AcDbEntity
  8
0
370
    13
100
AcDbSpline
210
0.0
220
0.0
230
1.0
 70
     8
 71
     3
 72
     8
 73
     4
 74
     0
 42
0.0000000001
 43
0.0000000001
 40
0.0
 40
0.0
 40
0.0
 40
0.0
 40
1.0
 40
1.0
 40
1.0
 40
1.0
 10
-421.4006150748863
 20
217.5703366469751
 30
0.0
 10
-421.4648523372209
 20
217.5074661349028
 30
0.0
 10
-421.499021093782
 20
217.421360868369
 30
0.0
 10
-421.4928707176011
 20
217.3318387261792
 30
0.0
  0
LINE
  5
1E24
102
{ACAD_REACTORS
330
1E7E
102
}
330
A
100
AcDbEntity
  8
0
370
    13
100
AcDbLine
 10
-421.4521699899254
 20
217.0758512005437
 30
0.0
 11
-421.4928707176011
 21
217.3318387261792
 31
0.0
  0
LINE
  5
1E25
102
{ACAD_REACTORS
330
1E7E
102
}
330
A
100
AcDbEntity
  8
0
370
    13
100
AcDbLine
 10
-421.4006150748863
 20
217.5703366469751
 30
0.0
 11
-421.1969692857826
 21
217.77466581121
 31
0.0
  0
LINE
  5
1E26
102
{ACAD_REACTORS
330
1E7E
102
}
330
A
100
AcDbEntity
  8
0
370
    13
100
AcDbLine
 10
-421.1296568353573
 20
216.7550701154292
 30
0.0
 11
-421.333302624461
 21
216.8900367038453
 31
0.0
  0
SPLINE
  5
1E27
102
{ACAD_REACTORS
330
1E7E
102
}
330
A
100
AcDbEntity
  8
0
370
    13
100
AcDbSpline
210
0.0
220
0.0
230
1.0
 70
     8
 71
     3
 72
     8
 73
     4
 74
     0
 42
0.0000000001
 43
0.0000000001
 40
0.052389709071199
 40
0.052389709071199
 40
0.052389709071199
 40
0.052389709071199
 40
1.0
 40
1.0
 40
1.0
 40
1.0
 10
-421.3172034015093
 20
215.102605509145
 30
0.0
 10
-421.3112807369529
 20
215.0429719806445
 30
0.0
 10
-421.266007446617
 20
214.9673017303855
 30
0.0
 10
-421.1983360360451
 20
214.9167910124466
 30
0.0
  0
SPLINE
  5
1E28
102
{ACAD_REACTORS
330
1E7E
102
}
330
A
100
AcDbEntity
  8
0
370
    13
100
AcDbSpline
210
0.0
220
0.0
230
1.0
 70
     8
 71
     3
 72
     8
 73
     4
 74
     0
 42
0.0000000001
 43
0.0000000001
 40
0.0
 40
0.0
 40
0.0
 40
0.0
 40
1.0
 40
1.0
 40
1.0
 40
1.0
 10
-421.2656484864703
 20
215.5970909555764
 30
0.0
 10
-421.329885748805
 20
215.5342204435041
 30
0.0
 10
-421.3640545053659
 20
215.4481151769704
 30
0.0
 10
-421.3579041291851
 20
215.3585930347805
 30
0.0
  0
LINE
  5
1E29
102
{ACAD_REACTORS
330
1E7E
102
}
330
A
100
AcDbEntity
  8
0
370
    13
100
AcDbLine
 10
-421.3172034015093
 20
215.102605509145
 30
0.0
 11
-421.3579041291851
 21
215.3585930347805
 31
0.0
  0
LINE
  5
1E2A
102
{ACAD_REACTORS
330
1E7E
102
}
330
A
100
AcDbEntity
  8
0
370
    13
100
AcDbLine
 10
-421.2656484864703
 20
215.5970909555764
 30
0.0
 11
-421.0620026973666
 21
215.8014201198113
 31
0.0
  0
LINE
  5
1E2B
102
{ACAD_REACTORS
330
1E7E
102
}
330
A
100
AcDbEntity
  8
0
370
    13
100
AcDbLine
 10
-420.9946902469413
 20
214.7818244240305
 30
0.0
 11
-421.1983360360449
 21
214.9167910124466
 31
0.0
  0
SPLINE
  5
1E2C
102
{ACAD_REACTORS
330
1E7E
102
}
330
A
100
AcDbEntity
  8
0
370
    13
100
AcDbSpline
210
0.0
220
0.0
230
1.0
 70
     8
 71
     3
 72
     8
 73
     4
 74
     0
 42
0.0000000001
 43
0.0000000001
 40
0.052389709071199
 40
0.052389709071199
 40
0.052389709071199
 40
0.052389709071199
 40
1.0
 40
1.0
 40
1.0
 40
1.0
 10
-421.1805283752653
 20
213.062047367321
 30
0.0
 10
-421.1746057107088
 20
213.0024138388205
 30
0.0
 10
-421.129332420373
 20
212.9267435885616
 30
0.0
 10
-421.061661009801
 20
212.8762328706226
 30
0.0
  0
SPLINE
  5
1E2D
102
{ACAD_REACTORS
330
1E7E
102
}
330
A
100
AcDbEntity
  8
0
370
    13
100
AcDbSpline
210
0.0
220
0.0
230
1.0
 70
     8
 71
     3
 72
     8
 73
     4
 74
     0
 42
0.0000000001
 43
0.0000000001
 40
0.0
 40
0.0
 40
0.0
 40
0.0
 40
1.0
 40
1.0
 40
1.0
 40
1.0
 10
-421.1289734602263
 20
213.5565328137524
 30
0.0
 10
-421.193210722561
 20
213.4936623016802
 30
0.0
 10
-421.227379479122
 20
213.4075570351464
 30
0.0
 10
-421.221229102941
 20
213.3180348929566
 30
0.0
  0
LINE
  5
1E2E
102
{ACAD_REACTORS
330
1E7E
102
}
330
A
100
AcDbEntity
  8
0
370
    13
100
AcDbLine
 10
-421.1805283752653
 20
213.062047367321
 30
0.0
 11
-421.221229102941
 21
213.3180348929566
 31
0.0
  0
LINE
  5
1E2F
102
{ACAD_REACTORS
330
1E7E
102
}
330
A
100
AcDbEntity
  8
0
370
    13
100
AcDbLine
 10
-421.1289734602263
 20
213.5565328137525
 30
0.0
 11
-420.9253276711225
 21
213.7608619779873
 31
0.0
  0
LINE
  5
1E30
102
{ACAD_REACTORS
330
1E7E
102
}
330
A
100
AcDbEntity
  8
0
370
    13
100
AcDbLine
 10
-420.8580152206973
 20
212.7412662822066
 30
0.0
 11
-421.061661009801
 21
212.8762328706226
 31
0.0
  0
SPLINE
  5
1E31
102
{ACAD_REACTORS
330
1E7E
102
}
330
A
100
AcDbEntity
  8
0
370
    13
100
AcDbSpline
210
0.0
220
0.0
230
1.0
 70
     8
 71
     3
 72
     8
 73
     4
 74
     0
 42
0.0000000001
 43
0.0000000001
 40
0.052389709071199
 40
0.052389709071199
 40
0.052389709071199
 40
0.052389709071199
 40
1.0
 40
1.0
 40
1.0
 40
1.0
 10
-421.0435116614556
 20
211.0898267386191
 30
0.0
 10
-421.0375889968991
 20
211.0301932101185
 30
0.0
 10
-420.9923157065633
 20
210.9545229598596
 30
0.0
 10
-420.9246442959913
 20
210.9040122419207
 30
0.0
  0
SPLINE
  5
1E32
102
{ACAD_REACTORS
330
1E7E
102
}
330
A
100
AcDbEntity
  8
0
370
    13
100
AcDbSpline
210
0.0
220
0.0
230
1.0
 70
     8
 71
     3
 72
     8
 73
     4
 74
     0
 42
0.0000000001
 43
0.0000000001
 40
0.0
 40
0.0
 40
0.0
 40
0.0
 40
1.0
 40
1.0
 40
1.0
 40
1.0
 10
-420.9919567464165
 20
211.5843121850505
 30
0.0
 10
-421.0561940087512
 20
211.5214416729782
 30
0.0
 10
-421.0903627653123
 20
211.4353364064444
 30
0.0
 10
-421.0842123891313
 20
211.3458142642546
 30
0.0
  0
LINE
  5
1E33
102
{ACAD_REACTORS
330
1E7E
102
}
330
A
100
AcDbEntity
  8
0
370
    13
100
AcDbLine
 10
-421.0435116614556
 20
211.0898267386191
 30
0.0
 11
-421.0842123891313
 21
211.3458142642546
 31
0.0
  0
LINE
  5
1E34
102
{ACAD_REACTORS
330
1E7E
102
}
330
A
100
AcDbEntity
  8
0
370
    13
100
AcDbLine
 10
-420.9919567464165
 20
211.5843121850505
 30
0.0
 11
-420.7883109573129
 21
211.7886413492854
 31
0.0
  0
LINE
  5
1E35
102
{ACAD_REACTORS
330
1E7E
102
}
330
A
100
AcDbEntity
  8
0
370
    13
100
AcDbLine
 10
-420.7209985068876
 20
210.7690456535046
 30
0.0
 11
-420.9246442959912
 21
210.9040122419207
 31
0.0
  0
SPLINE
  5
1E36
102
{ACAD_REACTORS
330
1E7E
102
}
330
A
100
AcDbEntity
  8
0
370
    13
100
AcDbSpline
210
0.0
220
0.0
230
1.0
 70
     8
 71
     3
 72
     8
 73
     4
 74
     0
 42
0.0000000001
 43
0.0000000001
 40
0.052389709071199
 40
0.052389709071199
 40
0.052389709071199
 40
0.052389709071199
 40
1.0
 40
1.0
 40
1.0
 40
1.0
 10
-420.9085450730396
 20
209.0492685967951
 30
0.0
 10
-420.9026224084831
 20
208.9896350682945
 30
0.0
 10
-420.8573491181473
 20
208.9139648180356
 30
0.0
 10
-420.7896777075753
 20
208.8634541000966
 30
0.0
  0
SPLINE
  5
1E37
102
{ACAD_REACTORS
330
1E7E
102
}
330
A
100
AcDbEntity
  8
0
370
    13
100
AcDbSpline
210
0.0
220
0.0
230
1.0
 70
     8
 71
     3
 72
     8
 73
     4
 74
     0
 42
0.0000000001
 43
0.0000000001
 40
0.0
 40
0.0
 40
0.0
 40
0.0
 40
1.0
 40
1.0
 40
1.0
 40
1.0
 10
-420.8569901580005
 20
209.5437540432265
 30
0.0
 10
-420.9212274203353
 20
209.4808835311542
 30
0.0
 10
-420.9553961768961
 20
209.3947782646204
 30
0.0
 10
-420.9492458007153
 20
209.3052561224306
 30
0.0
  0
LINE
  5
1E38
102
{ACAD_REACTORS
330
1E7E
102
}
330
A
100
AcDbEntity
  8
0
370
    13
100
AcDbLine
 10
-420.9085450730396
 20
209.0492685967951
 30
0.0
 11
-420.9492458007153
 21
209.3052561224306
 31
0.0
  0
LINE
  5
1E39
102
{ACAD_REACTORS
330
1E7E
102
}
330
A
100
AcDbEntity
  8
0
370
    13
100
AcDbLine
 10
-420.8569901580005
 20
209.5437540432265
 30
0.0
 11
-420.6533443688969
 21
209.7480832074614
 31
0.0
  0
LINE
  5
1E3A
102
{ACAD_REACTORS
330
1E7E
102
}
330
A
100
AcDbEntity
  8
0
370
    13
100
AcDbLine
 10
-420.5860319184715
 20
208.7284875116806
 30
0.0
 11
-420.7896777075752
 21
208.8634541000966
 31
0.0
  0
SPLINE
  5
1E3B
102
{ACAD_REACTORS
330
1E7E
102
}
330
A
100
AcDbEntity
  8
0
370
    13
100
AcDbSpline
210
0.0
220
0.0
230
1.0
 70
     8
 71
     3
 72
     8
 73
     4
 74
     0
 42
0.0000000001
 43
0.0000000001
 40
0.052389709071199
 40
0.052389709071199
 40
0.052389709071199
 40
0.052389709071199
 40
1.0
 40
1.0
 40
1.0
 40
1.0
 10
-420.7725534219267
 20
207.0773896556587
 30
0.0
 10
-420.7666307573703
 20
207.0177561271582
 30
0.0
 10
-420.7213574670344
 20
206.9420858768992
 30
0.0
 10
-420.6536860564624
 20
206.8915751589603
 30
0.0
  0
SPLINE
  5
1E3C
102
{ACAD_REACTORS
330
1E7E
102
}
330
A
100
AcDbEntity
  8
0
370
    13
100
AcDbSpline
210
0.0
220
0.0
230
1.0
 70
     8
 71
     3
 72
     8
 73
     4
 74
     0
 42
0.0000000001
 43
0.0000000001
 40
0.0
 40
0.0
 40
0.0
 40
0.0
 40
1.0
 40
1.0
 40
1.0
 40
1.0
 10
-420.7209985068876
 20
207.5718751020901
 30
0.0
 10
-420.7852357692223
 20
207.5090045900179
 30
0.0
 10
-420.8194045257833
 20
207.4228993234841
 30
0.0
 10
-420.8132541496024
 20
207.3333771812943
 30
0.0
  0
LINE
  5
1E3D
102
{ACAD_REACTORS
330
1E7E
102
}
330
A
100
AcDbEntity
  8
0
370
    13
100
AcDbLine
 10
-420.7725534219267
 20
207.0773896556587
 30
0.0
 11
-420.8132541496024
 21
207.3333771812943
 31
0.0
  0
LINE
  5
1E3E
102
{ACAD_REACTORS
330
1E7E
102
}
330
A
100
AcDbEntity
  8
0
370
    13
100
AcDbLine
 10
-420.7209985068876
 20
207.5718751020902
 30
0.0
 11
-420.5173527177839
 21
207.776204266325
 31
0.0
  0
LINE
  5
1E3F
102
{ACAD_REACTORS
330
1E7E
102
}
330
A
100
AcDbEntity
  8
0
370
    13
100
AcDbLine
 10
-420.4500402673587
 20
206.7566085705442
 30
0.0
 11
-420.6536860564623
 21
206.8915751589603
 31
0.0
  0
SPLINE
  5
1E40
102
{ACAD_REACTORS
330
1E7E
102
}
330
A
100
AcDbEntity
  8
0
370
    13
100
AcDbSpline
210
0.0
220
0.0
230
1.0
 70
     8
 71
     3
 72
     8
 73
     4
 74
     0
 42
0.0000000001
 43
0.0000000001
 40
0.052389709071199
 40
0.052389709071199
 40
0.052389709071199
 40
0.052389709071199
 40
1.0
 40
1.0
 40
1.0
 40
1.0
 10
-420.6362200832483
 20
205.10414396426
 30
0.0
 10
-420.6302974186918
 20
205.0445104357594
 30
0.0
 10
-420.585024128356
 20
204.9688401855005
 30
0.0
 10
-420.5173527177841
 20
204.9183294675616
 30
0.0
  0
SPLINE
  5
1E41
102
{ACAD_REACTORS
330
1E7E
102
}
330
A
100
AcDbEntity
  8
0
370
    13
100
AcDbSpline
210
0.0
220
0.0
230
1.0
 70
     8
 71
     3
 72
     8
 73
     4
 74
     0
 42
0.0000000001
 43
0.0000000001
 40
0.0
 40
0.0
 40
0.0
 40
0.0
 40
1.0
 40
1.0
 40
1.0
 40
1.0
 10
-420.5846651682093
 20
205.5986294106914
 30
0.0
 10
-420.6489024305439
 20
205.5357588986191
 30
0.0
 10
-420.6830711871049
 20
205.4496536320853
 30
0.0
 10
-420.6769208109241
 20
205.3601314898955
 30
0.0
  0
LINE
  5
1E42
102
{ACAD_REACTORS
330
1E7E
102
}
330
A
100
AcDbEntity
  8
0
370
    13
100
AcDbLine
 10
-420.6362200832483
 20
205.10414396426
 30
0.0
 11
-420.6769208109241
 21
205.3601314898955
 31
0.0
  0
LINE
  5
1E43
102
{ACAD_REACTORS
330
1E7E
102
}
330
A
100
AcDbEntity
  8
0
370
    13
100
AcDbLine
 10
-420.5846651682093
 20
205.5986294106914
 30
0.0
 11
-420.3810193791055
 21
205.8029585749263
 31
0.0
  0
LINE
  5
1E44
102
{ACAD_REACTORS
330
1E7E
102
}
330
A
100
AcDbEntity
  8
0
370
    13
100
AcDbLine
 10
-420.3137069286802
 20
204.7833628791455
 30
0.0
 11
-420.5173527177839
 21
204.9183294675616
 31
0.0
  0
SPLINE
  5
1E45
102
{ACAD_REACTORS
330
1E7E
102
}
330
A
100
AcDbEntity
  8
0
370
    13
100
AcDbSpline
210
0.0
220
0.0
230
1.0
 70
     8
 71
     3
 72
     8
 73
     4
 74
     0
 42
0.0000000001
 43
0.0000000001
 40
0.052389709071199
 40
0.052389709071199
 40
0.052389709071199
 40
0.052389709071199
 40
1.0
 40
1.0
 40
1.0
 40
1.0
 10
-423.4247323061929
 20
246.9359275592169
 30
0.0
 10
-423.4188096416365
 20
246.8762940307163
 30
0.0
 10
-423.3735363513006
 20
246.8006237804574
 30
0.0
 10
-423.3058649407285
 20
246.7501130625185
 30
0.0
  0
SPLINE
  5
1E46
102
{ACAD_REACTORS
330
1E7E
102
}
330
A
100
AcDbEntity
  8
0
370
    13
100
AcDbSpline
210
0.0
220
0.0
230
1.0
 70
     8
 71
     3
 72
     8
 73
     4
 74
     0
 42
0.0000000001
 43
0.0000000001
 40
0.0
 40
0.0
 40
0.0
 40
0.0
 40
1.0
 40
1.0
 40
1.0
 40
1.0
 10
-423.3731773911539
 20
247.4304130056483
 30
0.0
 10
-423.4374146534886
 20
247.3675424935761
 30
0.0
 10
-423.4715834100495
 20
247.2814372270423
 30
0.0
 10
-423.4654330338686
 20
247.1919150848525
 30
0.0
  0
LINE
  5
1E47
102
{ACAD_REACTORS
330
1E7E
102
}
330
A
100
AcDbEntity
  8
0
370
    13
100
AcDbLine
 10
-423.4247323061929
 20
246.9359275592169
 30
0.0
 11
-423.4654330338686
 21
247.1919150848525
 31
0.0
  0
LINE
  5
1E48
102
{ACAD_REACTORS
330
1E7E
102
}
330
A
100
AcDbEntity
  8
0
370
    13
100
AcDbLine
 10
-423.3731773911539
 20
247.4304130056483
 30
0.0
 11
-423.1695316020501
 21
247.6347421698832
 31
0.0
  0
LINE
  5
1E49
102
{ACAD_REACTORS
330
1E7E
102
}
330
A
100
AcDbEntity
  8
0
370
    13
100
AcDbLine
 10
-423.1022191516249
 20
246.6151464741024
 30
0.0
 11
-423.3058649407285
 21
246.7501130625185
 31
0.0
  0
SPLINE
  5
1E4A
102
{ACAD_REACTORS
330
1E7E
102
}
330
A
100
AcDbEntity
  8
0
370
    13
100
AcDbSpline
210
0.0
220
0.0
230
1.0
 70
     8
 71
     3
 72
     8
 73
     4
 74
     0
 42
0.0000000001
 43
0.0000000001
 40
0.052389709071199
 40
0.052389709071199
 40
0.052389709071199
 40
0.052389709071199
 40
1.0
 40
1.0
 40
1.0
 40
1.0
 10
-423.2890823426457
 20
244.9626818678182
 30
0.0
 10
-423.2831596780893
 20
244.9030483393176
 30
0.0
 10
-423.2378863877535
 20
244.8273780890587
 30
0.0
 10
-423.1702149771814
 20
244.7768673711198
 30
0.0
  0
SPLINE
  5
1E4B
102
{ACAD_REACTORS
330
1E7E
102
}
330
A
100
AcDbEntity
  8
0
370
    13
100
AcDbSpline
210
0.0
220
0.0
230
1.0
 70
     8
 71
     3
 72
     8
 73
     4
 74
     0
 42
0.0000000001
 43
0.0000000001
 40
0.0
 40
0.0
 40
0.0
 40
0.0
 40
1.0
 40
1.0
 40
1.0
 40
1.0
 10
-423.2375274276067
 20
245.4571673142496
 30
0.0
 10
-423.3017646899415
 20
245.3942968021774
 30
0.0
 10
-423.3359334465023
 20
245.3081915356436
 30
0.0
 10
-423.3297830703214
 20
245.2186693934538
 30
0.0
  0
LINE
  5
1E4C
102
{ACAD_REACTORS
330
1E7E
102
}
330
A
100
AcDbEntity
  8
0
370
    13
100
AcDbLine
 10
-423.2890823426457
 20
244.9626818678182
 30
0.0
 11
-423.3297830703214
 21
245.2186693934538
 31
0.0
  0
LINE
  5
1E4D
102
{ACAD_REACTORS
330
1E7E
102
}
330
A
100
AcDbEntity
  8
0
370
    13
100
AcDbLine
 10
-423.2375274276067
 20
245.4571673142496
 30
0.0
 11
-423.0338816385029
 21
245.6614964784845
 31
0.0
  0
LINE
  5
1E4E
102
{ACAD_REACTORS
330
1E7E
102
}
330
A
100
AcDbEntity
  8
0
370
    13
100
AcDbLine
 10
-422.9665691880777
 20
244.6419007827038
 30
0.0
 11
-423.1702149771814
 21
244.7768673711198
 31
0.0
  0
SPLINE
  5
1E4F
102
{ACAD_REACTORS
330
1E7E
102
}
330
A
100
AcDbEntity
  8
0
370
    13
100
AcDbSpline
210
0.0
220
0.0
230
1.0
 70
     8
 71
     3
 72
     8
 73
     4
 74
     0
 42
0.0000000001
 43
0.0000000001
 40
0.052389709071199
 40
0.052389709071199
 40
0.052389709071199
 40
0.052389709071199
 40
1.0
 40
1.0
 40
1.0
 40
1.0
 10
-423.0174407279856
 20
241.0865781235363
 30
0.0
 10
-423.0115180634292
 20
241.0269445950358
 30
0.0
 10
-422.9662447730933
 20
240.9512743447769
 30
0.0
 10
-422.8985733625212
 20
240.9007636268379
 30
0.0
  0
SPLINE
  5
1E50
102
{ACAD_REACTORS
330
1E7E
102
}
330
A
100
AcDbEntity
  8
0
370
    13
100
AcDbSpline
210
0.0
220
0.0
230
1.0
 70
     8
 71
     3
 72
     8
 73
     4
 74
     0
 42
0.0000000001
 43
0.0000000001
 40
0.0
 40
0.0
 40
0.0
 40
0.0
 40
1.0
 40
1.0
 40
1.0
 40
1.0
 10
-422.9658858129465
 20
241.5810635699677
 30
0.0
 10
-423.0301230752813
 20
241.5181930578955
 30
0.0
 10
-423.0642918318422
 20
241.4320877913617
 30
0.0
 10
-423.0581414556612
 20
241.3425656491719
 30
0.0
  0
LINE
  5
1E51
102
{ACAD_REACTORS
330
1E7E
102
}
330
A
100
AcDbEntity
  8
0
370
    13
100
AcDbLine
 10
-423.0174407279856
 20
241.0865781235363
 30
0.0
 11
-423.0581414556612
 21
241.3425656491719
 31
0.0
  0
LINE
  5
1E52
102
{ACAD_REACTORS
330
1E7E
102
}
330
A
100
AcDbEntity
  8
0
370
    13
100
AcDbLine
 10
-422.9658858129465
 20
241.5810635699678
 30
0.0
 11
-422.7622400238427
 21
241.7853927342027
 31
0.0
  0
LINE
  5
1E53
102
{ACAD_REACTORS
330
1E7E
102
}
330
A
100
AcDbEntity
  8
0
370
    13
100
AcDbLine
 10
-422.6949275734176
 20
240.7657970384219
 30
0.0
 11
-422.8985733625212
 21
240.9007636268379
 31
0.0
  0
SPLINE
  5
1E54
102
{ACAD_REACTORS
330
1E7E
102
}
330
A
100
AcDbEntity
  8
0
370
    13
100
AcDbSpline
210
0.0
220
0.0
230
1.0
 70
     8
 71
     3
 72
     8
 73
     4
 74
     0
 42
0.0000000001
 43
0.0000000001
 40
0.052389709071199
 40
0.052389709071199
 40
0.052389709071199
 40
0.052389709071199
 40
1.0
 40
1.0
 40
1.0
 40
1.0
 10
-422.8804240141759
 20
239.0460199817124
 30
0.0
 10
-422.8745013496194
 20
238.9863864532118
 30
0.0
 10
-422.8292280592836
 20
238.9107162029529
 30
0.0
 10
-422.7615566487116
 20
238.860205485014
 30
0.0
  0
SPLINE
  5
1E55
102
{ACAD_REACTORS
330
1E7E
102
}
330
A
100
AcDbEntity
  8
0
370
    13
100
AcDbSpline
210
0.0
220
0.0
230
1.0
 70
     8
 71
     3
 72
     8
 73
     4
 74
     0
 42
0.0000000001
 43
0.0000000001
 40
0.0
 40
0.0
 40
0.0
 40
0.0
 40
1.0
 40
1.0
 40
1.0
 40
1.0
 10
-422.8288690991369
 20
239.5405054281438
 30
0.0
 10
-422.8931063614716
 20
239.4776349160715
 30
0.0
 10
-422.9272751180324
 20
239.3915296495378
 30
0.0
 10
-422.9211247418517
 20
239.3020075073479
 30
0.0
  0
LINE
  5
1E56
102
{ACAD_REACTORS
330
1E7E
102
}
330
A
100
AcDbEntity
  8
0
370
    13
100
AcDbLine
 10
-422.8804240141759
 20
239.0460199817124
 30
0.0
 11
-422.9211247418517
 21
239.3020075073479
 31
0.0
  0
LINE
  5
1E57
102
{ACAD_REACTORS
330
1E7E
102
}
330
A
100
AcDbEntity
  8
0
370
    13
100
AcDbLine
 10
-422.8288690991369
 20
239.5405054281438
 30
0.0
 11
-422.6252233100332
 21
239.7448345923787
 31
0.0
  0
LINE
  5
1E58
102
{ACAD_REACTORS
330
1E7E
102
}
330
A
100
AcDbEntity
  8
0
370
    13
100
AcDbLine
 10
-422.5579108596078
 20
238.7252388965979
 30
0.0
 11
-422.7615566487116
 21
238.860205485014
 31
0.0
  0
SPLINE
  5
1E59
102
{ACAD_REACTORS
330
1E7E
102
}
330
A
100
AcDbEntity
  8
0
370
    13
100
AcDbSpline
210
0.0
220
0.0
230
1.0
 70
     8
 71
     3
 72
     8
 73
     4
 74
     0
 42
0.0000000001
 43
0.0000000001
 40
0.052389709071199
 40
0.052389709071199
 40
0.052389709071199
 40
0.052389709071199
 40
1.0
 40
1.0
 40
1.0
 40
1.0
 10
-422.7440906754974
 20
237.0727742903136
 30
0.0
 10
-422.7381680109409
 20
237.0131407618131
 30
0.0
 10
-422.692894720605
 20
236.9374705115541
 30
0.0
 10
-422.625223310033
 20
236.8869597936152
 30
0.0
  0
SPLINE
  5
1E5A
102
{ACAD_REACTORS
330
1E7E
102
}
330
A
100
AcDbEntity
  8
0
370
    13
100
AcDbSpline
210
0.0
220
0.0
230
1.0
 70
     8
 71
     3
 72
     8
 73
     4
 74
     0
 42
0.0000000001
 43
0.0000000001
 40
0.0
 40
0.0
 40
0.0
 40
0.0
 40
1.0
 40
1.0
 40
1.0
 40
1.0
 10
-422.6925357604583
 20
237.567259736745
 30
0.0
 10
-422.756773022793
 20
237.5043892246727
 30
0.0
 10
-422.790941779354
 20
237.4182839581389
 30
0.0
 10
-422.7847914031731
 20
237.3287618159491
 30
0.0
  0
LINE
  5
1E5B
102
{ACAD_REACTORS
330
1E7E
102
}
330
A
100
AcDbEntity
  8
0
370
    13
100
AcDbLine
 10
-422.7440906754974
 20
237.0727742903136
 30
0.0
 11
-422.7847914031731
 21
237.3287618159491
 31
0.0
  0
LINE
  5
1E5C
102
{ACAD_REACTORS
330
1E7E
102
}
330
A
100
AcDbEntity
  8
0
370
    13
100
AcDbLine
 10
-422.6925357604583
 20
237.567259736745
 30
0.0
 11
-422.4888899713546
 21
237.7715889009799
 31
0.0
  0
LINE
  5
1E5D
102
{ACAD_REACTORS
330
1E7E
102
}
330
A
100
AcDbEntity
  8
0
370
    13
100
AcDbLine
 10
-422.4215775209294
 20
236.7519932051991
 30
0.0
 11
-422.6252233100329
 21
236.8869597936152
 31
0.0
  0
SPLINE
  5
1E5E
102
{ACAD_REACTORS
330
1E7E
102
}
330
A
100
AcDbEntity
  8
0
370
    13
100
AcDbSpline
210
0.0
220
0.0
230
1.0
 70
     8
 71
     3
 72
     8
 73
     4
 74
     0
 42
0.0000000001
 43
0.0000000001
 40
0.052389709071199
 40
0.052389709071199
 40
0.052389709071199
 40
0.052389709071199
 40
1.0
 40
1.0
 40
1.0
 40
1.0
 10
-422.6087823995158
 20
235.0998702864805
 30
0.0
 10
-422.6028597349595
 20
235.0402367579799
 30
0.0
 10
-422.5575864446235
 20
234.964566507721
 30
0.0
 10
-422.4899150340514
 20
234.9140557897821
 30
0.0
  0
SPLINE
  5
1E5F
102
{ACAD_REACTORS
330
1E7E
102
}
330
A
100
AcDbEntity
  8
0
370
    13
100
AcDbSpline
210
0.0
220
0.0
230
1.0
 70
     8
 71
     3
 72
     8
 73
     4
 74
     0
 42
0.0000000001
 43
0.0000000001
 40
0.0
 40
0.0
 40
0.0
 40
0.0
 40
1.0
 40
1.0
 40
1.0
 40
1.0
 10
-422.5572274844767
 20
235.5943557329119
 30
0.0
 10
-422.6214647468115
 20
235.5314852208396
 30
0.0
 10
-422.6556335033725
 20
235.4453799543059
 30
0.0
 10
-422.6494831271915
 20
235.355857812116
 30
0.0
  0
LINE
  5
1E60
102
{ACAD_REACTORS
330
1E7E
102
}
330
A
100
AcDbEntity
  8
0
370
    13
100
AcDbLine
 10
-422.6087823995158
 20
235.0998702864805
 30
0.0
 11
-422.6494831271915
 21
235.355857812116
 31
0.0
  0
LINE
  5
1E61
102
{ACAD_REACTORS
330
1E7E
102
}
330
A
100
AcDbEntity
  8
0
370
    13
100
AcDbLine
 10
-422.5572274844767
 20
235.5943557329119
 30
0.0
 11
-422.353581695373
 21
235.7986848971468
 31
0.0
  0
LINE
  5
1E62
102
{ACAD_REACTORS
330
1E7E
102
}
330
A
100
AcDbEntity
  8
0
370
    13
100
AcDbLine
 10
-422.2862692449479
 20
234.779089201366
 30
0.0
 11
-422.4899150340514
 21
234.9140557897821
 31
0.0
  0
SPLINE
  5
1E63
102
{ACAD_REACTORS
330
1E7E
102
}
330
A
100
AcDbEntity
  8
0
370
    13
100
AcDbSpline
210
0.0
220
0.0
230
1.0
 70
     8
 71
     3
 72
     8
 73
     4
 74
     0
 42
0.0000000001
 43
0.0000000001
 40
0.052389709071199
 40
0.052389709071199
 40
0.052389709071199
 40
0.052389709071199
 40
1.0
 40
1.0
 40
1.0
 40
1.0
 10
-422.4731324359686
 20
233.0593121446565
 30
0.0
 10
-422.4672097714122
 20
232.9996786161559
 30
0.0
 10
-422.4219364810763
 20
232.924008365897
 30
0.0
 10
-422.3542650705042
 20
232.8734976479581
 30
0.0
  0
SPLINE
  5
1E64
102
{ACAD_REACTORS
330
1E7E
102
}
330
A
100
AcDbEntity
  8
0
370
    13
100
AcDbSpline
210
0.0
220
0.0
230
1.0
 70
     8
 71
     3
 72
     8
 73
     4
 74
     0
 42
0.0000000001
 43
0.0000000001
 40
0.0
 40
0.0
 40
0.0
 40
0.0
 40
1.0
 40
1.0
 40
1.0
 40
1.0
 10
-422.4215775209296
 20
233.5537975910879
 30
0.0
 10
-422.4858147832643
 20
233.4909270790156
 30
0.0
 10
-422.5199835398252
 20
233.4048218124818
 30
0.0
 10
-422.5138331636443
 20
233.315299670292
 30
0.0
  0
LINE
  5
1E65
102
{ACAD_REACTORS
330
1E7E
102
}
330
A
100
AcDbEntity
  8
0
370
    13
100
AcDbLine
 10
-422.4731324359686
 20
233.0593121446565
 30
0.0
 11
-422.5138331636443
 21
233.315299670292
 31
0.0
  0
LINE
  5
1E66
102
{ACAD_REACTORS
330
1E7E
102
}
330
A
100
AcDbEntity
  8
0
370
    13
100
AcDbLine
 10
-422.4215775209296
 20
233.5537975910879
 30
0.0
 11
-422.2179317318258
 21
233.7581267553228
 31
0.0
  0
LINE
  5
1E67
102
{ACAD_REACTORS
330
1E7E
102
}
330
A
100
AcDbEntity
  8
0
370
    13
100
AcDbLine
 10
-422.1506192814006
 20
232.738531059542
 30
0.0
 11
-422.3542650705042
 21
232.8734976479581
 31
0.0
  0
SPLINE
  5
1E68
102
{ACAD_REACTORS
330
1E7E
102
}
330
A
100
AcDbEntity
  8
0
370
    13
100
AcDbSpline
210
0.0
220
0.0
230
1.0
 70
     8
 71
     3
 72
     8
 73
     4
 74
     0
 42
0.0000000001
 43
0.0000000001
 40
0.052389709071199
 40
0.052389709071199
 40
0.052389709071199
 40
0.052389709071199
 40
1.0
 40
1.0
 40
1.0
 40
1.0
 10
-422.3367990972901
 20
231.0874332035202
 30
0.0
 10
-422.3308764327336
 20
231.0277996750196
 30
0.0
 10
-422.2856031423979
 20
230.9521294247607
 30
0.0
 10
-422.2179317318258
 20
230.9016187068217
 30
0.0
  0
SPLINE
  5
1E69
102
{ACAD_REACTORS
330
1E7E
102
}
330
A
100
AcDbEntity
  8
0
370
    13
100
AcDbSpline
210
0.0
220
0.0
230
1.0
 70
     8
 71
     3
 72
     8
 73
     4
 74
     0
 42
0.0000000001
 43
0.0000000001
 40
0.0
 40
0.0
 40
0.0
 40
0.0
 40
1.0
 40
1.0
 40
1.0
 40
1.0
 10
-422.2852441822511
 20
231.5819186499516
 30
0.0
 10
-422.3494814445858
 20
231.5190481378793
 30
0.0
 10
-422.3836502011468
 20
231.4329428713455
 30
0.0
 10
-422.3774998249658
 20
231.3434207291557
 30
0.0
  0
LINE
  5
1E6A
102
{ACAD_REACTORS
330
1E7E
102
}
330
A
100
AcDbEntity
  8
0
370
    13
100
AcDbLine
 10
-422.3367990972901
 20
231.0874332035202
 30
0.0
 11
-422.3774998249658
 21
231.3434207291557
 31
0.0
  0
LINE
  5
1E6B
102
{ACAD_REACTORS
330
1E7E
102
}
330
A
100
AcDbEntity
  8
0
370
    13
100
AcDbLine
 10
-422.2852441822511
 20
231.5819186499516
 30
0.0
 11
-422.0815983931474
 21
231.7862478141865
 31
0.0
  0
LINE
  5
1E6C
102
{ACAD_REACTORS
330
1E7E
102
}
330
A
100
AcDbEntity
  8
0
370
    13
100
AcDbLine
 10
-422.0142859427221
 20
230.7666521184057
 30
0.0
 11
-422.2179317318258
 21
230.9016187068217
 31
0.0
  0
SPLINE
  5
1E6D
102
{ACAD_REACTORS
330
1E7E
102
}
330
A
100
AcDbEntity
  8
0
370
    13
100
AcDbSpline
210
0.0
220
0.0
230
1.0
 70
     8
 71
     3
 72
     8
 73
     4
 74
     0
 42
0.0000000001
 43
0.0000000001
 40
0.052389709071199
 40
0.052389709071199
 40
0.052389709071199
 40
0.052389709071199
 40
1.0
 40
1.0
 40
1.0
 40
1.0
 10
-422.2008074461772
 20
229.1155542623839
 30
0.0
 10
-422.1948847816207
 20
229.0559207338833
 30
0.0
 10
-422.149611491285
 20
228.9802504836244
 30
0.0
 10
-422.081940080713
 20
228.9297397656854
 30
0.0
  0
SPLINE
  5
1E6E
102
{ACAD_REACTORS
330
1E7E
102
}
330
A
100
AcDbEntity
  8
0
370
    13
100
AcDbSpline
210
0.0
220
0.0
230
1.0
 70
     8
 71
     3
 72
     8
 73
     4
 74
     0
 42
0.0000000001
 43
0.0000000001
 40
0.0
 40
0.0
 40
0.0
 40
0.0
 40
1.0
 40
1.0
 40
1.0
 40
1.0
 10
-422.1492525311382
 20
229.6100397088153
 30
0.0
 10
-422.2134897934729
 20
229.547169196743
 30
0.0
 10
-422.2476585500338
 20
229.4610639302092
 30
0.0
 10
-422.241508173853
 20
229.3715417880194
 30
0.0
  0
LINE
  5
1E6F
102
{ACAD_REACTORS
330
1E7E
102
}
330
A
100
AcDbEntity
  8
0
370
    13
100
AcDbLine
 10
-422.2008074461772
 20
229.1155542623839
 30
0.0
 11
-422.241508173853
 21
229.3715417880194
 31
0.0
  0
LINE
  5
1E70
102
{ACAD_REACTORS
330
1E7E
102
}
330
A
100
AcDbEntity
  8
0
370
    13
100
AcDbLine
 10
-422.1492525311382
 20
229.6100397088153
 30
0.0
 11
-421.9456067420345
 21
229.8143688730502
 31
0.0
  0
LINE
  5
1E71
102
{ACAD_REACTORS
330
1E7E
102
}
330
A
100
AcDbEntity
  8
0
370
    13
100
AcDbLine
 10
-421.8782942916091
 20
228.7947731772694
 30
0.0
 11
-422.0819400807129
 21
228.9297397656854
 31
0.0
  0
SPLINE
  5
1E72
102
{ACAD_REACTORS
330
1E7E
102
}
330
A
100
AcDbEntity
  8
0
370
    13
100
AcDbSpline
210
0.0
220
0.0
230
1.0
 70
     8
 71
     3
 72
     8
 73
     4
 74
     0
 42
0.0000000001
 43
0.0000000001
 40
0.052389709071199
 40
0.052389709071199
 40
0.052389709071199
 40
0.052389709071199
 40
1.0
 40
1.0
 40
1.0
 40
1.0
 10
-422.0644741074988
 20
227.0749961205599
 30
0.0
 10
-422.0585514429423
 20
227.0153625920593
 30
0.0
 10
-422.0132781526065
 20
226.9396923418004
 30
0.0
 10
-421.9456067420345
 20
226.8891816238614
 30
0.0
  0
SPLINE
  5
1E73
102
{ACAD_REACTORS
330
1E7E
102
}
330
A
100
AcDbEntity
  8
0
370
    13
100
AcDbSpline
210
0.0
220
0.0
230
1.0
 70
     8
 71
     3
 72
     8
 73
     4
 74
     0
 42
0.0000000001
 43
0.0000000001
 40
0.0
 40
0.0
 40
0.0
 40
0.0
 40
1.0
 40
1.0
 40
1.0
 40
1.0
 10
-422.0129191924598
 20
227.5694815669913
 30
0.0
 10
-422.0771564547944
 20
227.506611054919
 30
0.0
 10
-422.1113252113553
 20
227.4205057883853
 30
0.0
 10
-422.1051748351746
 20
227.3309836461954
 30
0.0
  0
LINE
  5
1E74
102
{ACAD_REACTORS
330
1E7E
102
}
330
A
100
AcDbEntity
  8
0
370
    13
100
AcDbLine
 10
-422.0644741074988
 20
227.0749961205599
 30
0.0
 11
-422.1051748351746
 21
227.3309836461954
 31
0.0
  0
LINE
  5
1E75
102
{ACAD_REACTORS
330
1E7E
102
}
330
A
100
AcDbEntity
  8
0
370
    13
100
AcDbLine
 10
-422.0129191924598
 20
227.5694815669913
 30
0.0
 11
-421.809273403356
 21
227.7738107312262
 31
0.0
  0
LINE
  5
1E76
102
{ACAD_REACTORS
330
1E7E
102
}
330
A
100
AcDbEntity
  8
0
370
    13
100
AcDbLine
 10
-421.7419609529307
 20
226.7542150354454
 30
0.0
 11
-421.9456067420344
 21
226.8891816238614
 31
0.0
  0
SPLINE
  5
1E77
102
{ACAD_REACTORS
330
1E7E
102
}
330
A
100
AcDbEntity
  8
0
370
    13
100
AcDbSpline
210
0.0
220
0.0
230
1.0
 70
     8
 71
     3
 72
     8
 73
     4
 74
     0
 42
0.0000000001
 43
0.0000000001
 40
0.0
 40
0.0
 40
0.0
 40
0.0
 40
1.0
 40
1.0
 40
1.0
 40
1.0
 10
-423.1011940889283
 20
243.6209383366605
 30
0.0
 10
-423.1654313512629
 20
243.5580678245883
 30
0.0
 10
-423.1996001078239
 20
243.4719625580545
 30
0.0
 10
-423.1934497316429
 20
243.3824404158647
 30
0.0
  0
SPLINE
  5
1E78
102
{ACAD_REACTORS
330
1E7E
102
}
330
A
100
AcDbEntity
  8
0
370
    13
100
AcDbSpline
210
0.0
220
0.0
230
1.0
 70
     8
 71
     3
 72
     8
 73
     4
 74
     0
 42
0.0000000001
 43
0.0000000001
 40
0.052389709071199
 40
0.052389709071199
 40
0.052389709071199
 40
0.052389709071199
 40
1.0
 40
1.0
 40
1.0
 40
1.0
 10
-423.1527490039672
 20
243.1264528902291
 30
0.0
 10
-423.1468263394108
 20
243.0668193617286
 30
0.0
 10
-423.101553049075
 20
242.9911491114697
 30
0.0
 10
-423.0338816385029
 20
242.9406383935307
 30
0.0
  0
LINE
  5
1E79
102
{ACAD_REACTORS
330
1E7E
102
}
330
A
100
AcDbEntity
  8
0
370
    13
100
AcDbLine
 10
-422.8302358493992
 20
242.8056718051147
 30
0.0
 11
-423.0338816385029
 21
242.9406383935307
 31
0.0
  0
LINE
  5
1E7A
102
{ACAD_REACTORS
330
1E7E
102
}
330
A
100
AcDbEntity
  8
0
370
    13
100
AcDbLine
 10
-423.1011940889283
 20
243.6209383366605
 30
0.0
 11
-422.8975482998245
 21
243.8252675008954
 31
0.0
  0
LINE
  5
1E7B
102
{ACAD_REACTORS
330
1E7E
102
}
330
A
100
AcDbEntity
  8
0
370
    13
100
AcDbLine
 10
-423.1527490039672
 20
243.1264528902291
 30
0.0
 11
-423.1934497316429
 21
243.3824404158647
 31
0.0
  0
LINE
  5
1E7C
102
{ACAD_REACTORS
330
1E7E
102
}
330
A
100
AcDbEntity
  8
0
370
    13
100
AcDbLine
 10
-421.1306818980541
 20
217.8440283870288
 30
0.0
 11
-421.1983360360449
 21
218.7956282572532
 31
0.0
  0
SPLINE
  5
1E7F
330
A
100
AcDbEntity
  8
0
370
    13
100
AcDbSpline
210
0.0
220
0.0
230
1.0
 70
     8
 71
     3
 72
     8
 73
     4
 74
     0
 42
0.0000000001
 43
0.0000000001
 40
0.0
 40
0.0
 40
0.0
 40
0.0
 40
1.0
 40
1.0
 40
1.0
 40
1.0
 10
-398.1119236275239
 20
173.6001570395041
 30
0.0
 10
-396.4506386835273
 20
173.6001570395041
 30
0.0
 10
-395.1033646123263
 20
174.947431110705
 30
0.0
 10
-395.1033646123263
 20
176.6087160547017
 30
0.0
  0
SPLINE
  5
1E9E
330
A
100
AcDbEntity
  8
0
370
    13
100
AcDbSpline
210
0.0
220
0.0
230
1.0
 70
     8
 71
     3
 72
     8
 73
     4
 74
     0
 42
0.0000000001
 43
0.0000000001
 40
0.0
 40
0.0
 40
0.0
 40
0.0
 40
1.0
 40
1.0
 40
1.0
 40
1.0
 10
-423.2632036445234
 20
241.6811055266977
 30
0.0
 10
-423.198624694623
 20
241.7426092885075
 30
0.0
 10
-423.1644559380619
 20
241.8300813053036
 30
0.0
 10
-423.1699229391118
 20
241.9189200723623
 30
0.0
  0
SPLINE
  5
1E9F
330
A
100
AcDbEntity
  8
0
370
    13
100
AcDbSpline
210
0.0
220
0.0
230
1.0
 70
     8
 71
     3
 72
     8
 73
     4
 74
     0
 42
0.0000000001
 43
0.0000000001
 40
0.0
 40
0.0
 40
0.0
 40
0.0
 40
1.0
 40
1.0
 40
1.0
 40
1.0
 10
-423.1398544333382
 20
242.138283489484
 30
0.0
 10
-423.1449797468222
 20
242.2271222565426
 30
0.0
 10
-423.1904241930484
 20
242.3087855847235
 30
0.0
 10
-423.2632036445234
 20
242.3614054698274
 30
0.0
  0
SPLINE
  5
1EA0
330
A
100
AcDbEntity
  8
0
370
    13
100
AcDbSpline
210
0.0
220
0.0
230
1.0
 70
     8
 71
     3
 72
     8
 73
     4
 74
     0
 42
0.0000000001
 43
0.0000000001
 40
0.0
 40
0.0
 40
0.0
 40
0.0
 40
1.0
 40
1.0
 40
1.0
 40
1.0
 10
-423.3988536080706
 20
243.6540095305308
 30
0.0
 10
-423.3339329706047
 20
243.7158549799063
 30
0.0
 10
-423.3001059016093
 20
243.8026436215713
 30
0.0
 10
-423.3059145902246
 20
243.8921657637612
 30
0.0
  0
SPLINE
  5
1EA1
330
A
100
AcDbEntity
  8
0
370
    13
100
AcDbSpline
210
0.0
220
0.0
230
1.0
 70
     8
 71
     3
 72
     8
 73
     4
 74
     0
 42
0.0000000001
 43
0.0000000001
 40
0.0
 40
0.0
 40
0.0
 40
0.0
 40
1.0
 40
1.0
 40
1.0
 40
1.0
 10
-423.2751627093198
 20
244.1108458057516
 30
0.0
 10
-423.2813130855006
 20
244.1996845728103
 30
0.0
 10
-423.3260741565955
 20
244.2813479009911
 30
0.0
 10
-423.3988536080706
 20
244.333967786095
 30
0.0
  0
SPLINE
  5
1EA2
330
A
100
AcDbEntity
  8
0
370
    13
100
AcDbSpline
210
0.0
220
0.0
230
1.0
 70
     8
 71
     3
 72
     8
 73
     4
 74
     0
 42
0.0000000001
 43
0.0000000001
 40
0.0
 40
0.0
 40
0.0
 40
0.0
 40
1.0
 40
1.0
 40
1.0
 40
1.0
 10
-423.5351869467489
 20
245.6945676723548
 30
0.0
 10
-423.4709496844143
 20
245.7567548092958
 30
0.0
 10
-423.4371226154188
 20
245.8435434509609
 30
0.0
 10
-423.442247928903
 20
245.9323822180195
 30
0.0
  0
SPLINE
  5
1EA3
330
A
100
AcDbEntity
  8
0
370
    13
100
AcDbSpline
210
0.0
220
0.0
230
1.0
 70
     8
 71
     3
 72
     8
 73
     4
 74
     0
 42
0.0000000001
 43
0.0000000001
 40
0.0
 40
0.0
 40
0.0
 40
0.0
 40
1.0
 40
1.0
 40
1.0
 40
1.0
 10
-423.4121794231294
 20
246.1507205724445
 30
0.0
 10
-423.4176464241791
 20
246.2402427146342
 30
0.0
 10
-423.4630908704053
 20
246.3215643552495
 30
0.0
 10
-423.5351869467491
 20
246.3745259279191
 30
0.0
  0
SPLINE
  5
1EA4
330
A
100
AcDbEntity
  8
0
370
    13
100
AcDbSpline
210
0.0
220
0.0
230
1.0
 70
     8
 71
     3
 72
     8
 73
     4
 74
     0
 42
0.0000000001
 43
0.0000000001
 40
0.0
 40
0.0
 40
0.0
 40
0.0
 40
1.0
 40
1.0
 40
1.0
 40
1.0
 10
-423.6711785978618
 20
247.6671299886223
 30
0.0
 10
-423.6059162728303
 20
247.7286337504322
 30
0.0
 10
-423.5727725789661
 20
247.8154223920971
 30
0.0
 10
-423.5782395800158
 20
247.9049445342869
 30
0.0
  0
SPLINE
  5
1EA5
330
A
100
AcDbEntity
  8
0
370
    13
100
AcDbSpline
210
0.0
220
0.0
230
1.0
 70
     8
 71
     3
 72
     8
 73
     4
 74
     0
 42
0.0000000001
 43
0.0000000001
 40
0.0
 40
0.0
 40
0.0
 40
0.0
 40
1.0
 40
1.0
 40
1.0
 40
1.0
 10
-423.547487699111
 20
248.1239662638431
 30
0.0
 10
-423.5536380752919
 20
248.2128050309018
 30
0.0
 10
-423.598399146387
 20
248.2948100466482
 30
0.0
 10
-423.6711785978618
 20
248.3474299317521
 30
0.0
  0
SPLINE
  5
1EA6
330
A
100
AcDbEntity
  8
0
370
    13
100
AcDbSpline
210
0.0
220
0.0
230
1.0
 70
     8
 71
     3
 72
     8
 73
     4
 74
     0
 42
0.0000000001
 43
0.0000000001
 40
0.0
 40
0.0
 40
0.0
 40
0.0
 40
1.0
 40
1.0
 40
1.0
 40
1.0
 10
-423.8075119365404
 20
249.6396923048898
 30
0.0
 10
-423.7419079239432
 20
249.7018794418308
 30
0.0
 10
-423.7087642300791
 20
249.7886680834958
 30
0.0
 10
-423.714231231129
 20
249.87784853812
 30
0.0
  0
SPLINE
  5
1EA7
330
A
100
AcDbEntity
  8
0
370
    13
100
AcDbSpline
210
0.0
220
0.0
230
1.0
 70
     8
 71
     3
 72
     8
 73
     4
 74
     0
 42
0.0000000001
 43
0.0000000001
 40
0.0
 40
0.0
 40
0.0
 40
0.0
 40
1.0
 40
1.0
 40
1.0
 40
1.0
 10
-423.6838210377895
 20
250.0958452049794
 30
0.0
 10
-423.6892880388392
 20
250.1857090347349
 30
0.0
 10
-423.7350741726311
 20
250.2673723629158
 30
0.0
 10
-423.8075119365404
 20
250.3199922480197
 30
0.0
  0
SPLINE
  5
1EAC
330
A
100
AcDbEntity
  8
0
370
    13
100
AcDbSpline
210
0.0
220
0.0
230
1.0
 70
     8
 71
     3
 72
     8
 73
     4
 74
     0
 42
0.0000000001
 43
0.0000000001
 40
0.0
 40
0.0
 40
0.0
 40
0.0
 40
1.0
 40
1.0
 40
1.0
 40
1.0
 10
-426.4357726912137
 20
267.5967401439163
 30
0.0
 10
-429.0124386234801
 20
267.5967401439163
 30
0.0
 10
-431.1698539127428
 20
265.6429706437573
 30
0.0
 10
-431.4254362118191
 20
263.0796305265497
 30
0.0
  0
SPLINE
  5
1EAF
330
A
100
AcDbEntity
  8
0
370
    13
100
AcDbSpline
210
0.0
220
0.0
230
1.0
 70
     8
 71
     3
 72
     8
 73
     4
 74
     0
 42
0.0000000001
 43
0.0000000001
 40
0.0
 40
0.0
 40
0.0
 40
0.0
 40
1.0
 40
1.0
 40
1.0
 40
1.0
 10
-382.2487367065058
 20
263.0782637762873
 30
0.0
 10
-382.5036356304511
 20
265.6422872686261
 30
0.0
 10
-384.6610509197138
 20
267.5967401439163
 30
0.0
 10
-387.2384002271112
 20
267.5967401439163
 30
0.0
  0
SPLINE
  5
1EB0
330
A
100
AcDbEntity
  8
0
370
    13
100
AcDbSpline
210
0.0
220
0.0
230
1.0
 70
     8
 71
     3
 72
     8
 73
     4
 74
     0
 42
0.0000000001
 43
0.0000000001
 40
0.0
 40
0.0
 40
0.0
 40
0.0
 40
1.0
 40
1.0
 40
1.0
 40
1.0
 10
-390.0419467029428
 20
267.5967401439163
 30
0.0
 10
-390.2080068598293
 20
267.5967401439163
 30
0.0
 10
-390.3429734482454
 20
267.4617735555003
 30
0.0
 10
-390.3429734482454
 20
267.2957133986137
 30
0.0
  0
SPLINE
  5
1EB1
330
A
100
AcDbEntity
  8
0
370
    13
100
AcDbSpline
210
0.0
220
0.0
230
1.0
 70
     8
 71
     3
 72
     8
 73
     4
 74
     0
 42
0.0000000001
 43
0.0000000001
 40
0.0
 40
0.0
 40
0.0
 40
0.0
 40
1.0
 40
1.0
 40
1.0
 40
1.0
 10
-388.3191579971363
 20
265.6067522458533
 30
0.0
 10
-388.8726918534247
 20
265.6067522458533
 30
0.0
 10
-389.3220110022022
 20
265.157433097076
 30
0.0
 10
-389.3220110022022
 20
264.6038992407874
 30
0.0
  0
SPLINE
  5
1EB2
330
A
100
AcDbEntity
  8
0
370
    13
100
AcDbSpline
210
0.0
220
0.0
230
1.0
 70
     8
 71
     3
 72
     8
 73
     4
 74
     0
 42
0.0000000001
 43
0.0000000001
 40
0.0
 40
0.0
 40
0.0
 40
0.0
 40
1.0
 40
1.0
 40
1.0
 40
1.0
 10
-384.2547844042032
 20
263.0345282519399
 30
0.0
 10
-384.4710726332344
 20
264.5116435980727
 30
0.0
 10
-385.7383918140826
 20
265.6067522458532
 30
0.0
 10
-387.2308831006679
 20
265.6067522458532
 30
0.0
  0
SPLINE
  5
1EB3
330
A
100
AcDbEntity
  8
0
370
    13
100
AcDbSpline
210
0.0
220
0.0
230
1.0
 70
     8
 71
     3
 72
    11
 73
     7
 74
     0
 42
0.0000000001
 43
0.0000000001
 40
0.0
 40
0.0
 40
0.0
 40
0.0
 40
1.0
 40
1.0
 40
1.0
 40
2.0
 40
2.0
 40
2.0
 40
2.0
 10
-384.9009155907721
 20
259.9104788395661
 30
0.0
 10
-384.3473817344836
 20
259.9104788395661
 30
0.0
 10
-383.8987459608374
 20
260.3597979883435
 30
0.0
 10
-383.8987459608374
 20
260.913331844632
 30
0.0
 10
-383.8987459608374
 20
260.9621931665143
 30
0.0
 10
-383.9025045240591
 20
261.010712800831
 30
0.0
 10
-383.9093382753715
 20
261.058890747582
 30
0.0
  0
SPLINE
  5
1EB4
330
A
100
AcDbEntity
  8
0
370
    13
100
AcDbSpline
210
0.0
220
0.0
230
1.0
 70
     8
 71
     3
 72
     8
 73
     4
 74
     0
 42
0.0000000001
 43
0.0000000001
 40
0.0
 40
0.0
 40
0.0
 40
0.0
 40
1.0
 40
1.0
 40
1.0
 40
1.0
 10
-425.7091321493111
 20
243.3665453473834
 30
0.0
 10
-425.6069675671937
 20
243.4690516170665
 30
0.0
 10
-425.5536643069586
 20
243.6101685816635
 30
0.0
 10
-425.5635732463612
 20
243.754360734351
 30
0.0
  0
SPLINE
  5
1EB5
330
A
100
AcDbEntity
  8
0
370
    13
100
AcDbSpline
210
0.0
220
0.0
230
1.0
 70
     8
 71
     3
 72
     8
 73
     4
 74
     0
 42
0.0000000001
 43
0.0000000001
 40
0.0
 40
0.0
 40
0.0
 40
0.0
 40
1.0
 40
1.0
 40
1.0
 40
1.0
 10
-426.3819149659976
 20
256.162402991919
 30
0.0
 10
-426.3819149659976
 20
256.1302843607516
 30
0.0
 10
-426.3819149659976
 20
256.0978240420185
 30
0.0
 10
-426.3795231530383
 20
256.0663887859825
 30
0.0
  0
SPLINE
  5
1EB6
330
A
100
AcDbEntity
  8
0
370
    13
100
AcDbSpline
210
0.0
220
0.0
230
1.0
 70
     8
 71
     3
 72
     8
 73
     4
 74
     0
 42
0.0000000001
 43
0.0000000001
 40
0.0
 40
0.0
 40
0.0
 40
0.0
 40
1.0
 40
1.0
 40
1.0
 40
1.0
 10
-426.4234719388518
 20
266.1380764103772
 30
0.0
 10
-427.9596992338351
 20
266.1233838450559
 30
0.0
 10
-429.2372690416517
 20
264.953103932841
 30
0.0
 10
-429.3876115705201
 20
263.4250771394323
 30
0.0
  0
SPLINE
  5
1EB7
330
A
100
AcDbEntity
  8
0
370
    13
100
AcDbSpline
210
0.0
220
0.0
230
1.0
 70
     8
 71
     3
 72
     8
 73
     4
 74
     0
 42
0.0000000001
 43
0.0000000001
 40
0.0
 40
0.0
 40
0.0
 40
0.0
 40
1.0
 40
1.0
 40
1.0
 40
1.0
 10
-433.9237266515753
 20
217.2413480612843
 30
0.0
 10
-433.9483281562992
 20
216.9949913264794
 30
0.0
 10
-433.7887600631592
 20
216.7667440326517
 30
0.0
 10
-433.5488953921008
 20
216.7059236459731
 30
0.0
  0
SPLINE
  5
1EB8
330
A
100
AcDbEntity
  8
0
370
    13
100
AcDbSpline
210
0.0
220
0.0
230
1.0
 70
     8
 71
     3
 72
     8
 73
     4
 74
     0
 42
0.0000000001
 43
0.0000000001
 40
0.0
 40
0.0
 40
0.0
 40
0.0
 40
1.0
 40
1.0
 40
1.0
 40
1.0
 10
-432.1053944673834
 20
234.8794728456614
 30
0.0
 10
-432.1870577955643
 20
234.7967844547838
 30
0.0
 10
-432.2383109304058
 20
234.6898362467478
 30
0.0
 10
-432.2502699952021
 20
234.5743458495716
 30
0.0
  0
SPLINE
  5
1EB9
330
A
100
AcDbEntity
  8
0
370
    13
100
AcDbSpline
210
0.0
220
0.0
230
1.0
 70
     8
 71
     3
 72
     8
 73
     4
 74
     0
 42
0.0000000001
 43
0.0000000001
 40
0.0
 40
0.0
 40
0.0
 40
0.0
 40
1.0
 40
1.0
 40
1.0
 40
1.0
 10
-424.1474910643224
 20
219.2257404023626
 30
0.0
 10
-424.0453264822049
 20
219.3279049844801
 30
0.0
 10
-423.9920232219696
 20
219.469021949077
 30
0.0
 10
-424.0019321613724
 20
219.6132141017645
 30
0.0
  0
SPLINE
  5
1EBA
330
A
100
AcDbEntity
  8
0
370
    13
100
AcDbSpline
210
0.0
220
0.0
230
1.0
 70
     8
 71
     3
 72
     8
 73
     4
 74
     0
 42
0.0000000001
 43
0.0000000001
 40
0.0
 40
0.0
 40
0.0
 40
0.0
 40
1.0
 40
1.0
 40
1.0
 40
1.0
 10
-428.584175063785
 20
215.4819987859575
 30
0.0
 10
-428.4133312809799
 20
215.4379210899937
 30
0.0
 10
-428.2322368712065
 20
215.4881491621384
 30
0.0
 10
-428.1071792221931
 20
215.6128651235861
 30
0.0
  0
SPLINE
  5
1EBB
330
A
100
AcDbEntity
  8
0
370
    13
100
AcDbSpline
210
0.0
220
0.0
230
1.0
 70
     8
 71
     3
 72
     8
 73
     4
 74
     0
 42
0.0000000001
 43
0.0000000001
 40
0.0
 40
0.0
 40
0.0
 40
0.0
 40
1.0
 40
1.0
 40
1.0
 40
1.0
 10
-422.7503023240665
 20
201.4143262103764
 30
0.0
 10
-422.7503023240665
 20
201.4249185249104
 30
0.0
 10
-422.7503023240665
 20
201.4361942145755
 30
0.0
 10
-422.7509856991979
 20
201.4474699042406
 30
0.0
  0
SPLINE
  5
1EBC
330
A
100
AcDbEntity
  8
0
370
    13
100
AcDbSpline
210
0.0
220
0.0
230
1.0
 70
     8
 71
     3
 72
     8
 73
     4
 74
     0
 42
0.0000000001
 43
0.0000000001
 40
0.0
 40
0.0
 40
0.0
 40
0.0
 40
1.0
 40
1.0
 40
1.0
 40
1.0
 10
-422.8965446021478
 20
191.3193279723881
 30
0.0
 10
-422.8025805216049
 20
191.4139754280622
 30
0.0
 10
-422.7503023240664
 20
191.5414248900347
 30
0.0
 10
-422.7503023240664
 20
191.6743413530571
 30
0.0
  0
SPLINE
  5
1EBD
330
A
100
AcDbEntity
  8
0
370
    13
100
AcDbSpline
210
0.0
220
0.0
230
1.0
 70
     8
 71
     3
 72
    11
 73
     7
 74
     0
 42
0.0000000001
 43
0.0000000001
 40
0.0
 40
0.0
 40
0.0
 40
0.0
 40
1.0
 40
1.0
 40
1.0
 40
2.0
 40
2.0
 40
2.0
 40
2.0
 10
-422.7762988635288
 20
186.8161523170705
 30
0.0
 10
-422.7762988635288
 20
187.3703695484902
 30
0.0
 10
-423.224934637175
 20
187.8196886972676
 30
0.0
 10
-423.778126805898
 20
187.8196886972676
 30
0.0
 10
-424.0449847946396
 20
187.8196886972676
 30
0.0
 10
-424.2988586558878
 20
187.7130821767972
 30
0.0
 10
-424.487128504539
 20
187.524812328146
 30
0.0
  0
SPLINE
  5
1EBE
330
A
100
AcDbEntity
  8
0
370
    13
100
AcDbSpline
210
0.0
220
0.0
230
1.0
 70
     8
 71
     3
 72
     8
 73
     4
 74
     0
 42
0.0000000001
 43
0.0000000001
 40
0.0
 40
0.0
 40
0.0
 40
0.0
 40
1.0
 40
1.0
 40
1.0
 40
1.0
 10
-420.7466747238044
 20
177.6112273722019
 30
0.0
 10
-420.7466747238044
 20
175.3957251967855
 30
0.0
 10
-418.9511065665228
 20
173.6001570395041
 30
0.0
 10
-416.7356043911065
 20
173.6001570395041
 30
0.0
  0
SPLINE
  5
1EC7
330
A
100
AcDbEntity
  8
0
370
    13
100
AcDbSpline
210
0.0
220
0.0
230
1.0
 70
     8
 71
     3
 72
     8
 73
     4
 74
     0
 42
0.0000000001
 43
0.0000000001
 40
0.0
 40
0.0
 40
0.0
 40
0.0
 40
1.0
 40
1.0
 40
1.0
 40
1.0
 10
-423.4989680647944
 20
212.4572514151906
 30
0.0
 10
-423.5129772549844
 20
212.6735396442218
 30
0.0
 10
-423.6657115968121
 20
212.8570258669545
 30
0.0
 10
-423.8755077620968
 20
212.909987439624
 30
0.0
  0
SPLINE
  5
1ECC
330
A
100
AcDbEntity
  8
0
370
    13
100
AcDbSpline
210
0.0
220
0.0
230
1.0
 70
     8
 71
     3
 72
     8
 73
     4
 74
     0
 42
0.0000000001
 43
0.0000000001
 40
0.0
 40
0.0
 40
0.0
 40
0.0
 40
1.0
 40
1.0
 40
1.0
 40
1.0
 10
-438.1594147548645
 20
173.7852136273952
 30
0.0
 10
-438.241419770611
 20
173.7032086116488
 30
0.0
 10
-438.2926729054526
 20
173.5955770284816
 30
0.0
 10
-438.3036069075521
 20
173.4800866313053
 30
0.0
  0
SPLINE
  5
1F0A
330
A
100
AcDbEntity
  8
0
370
    13
100
AcDbSpline
210
0.0
220
0.0
230
1.0
 70
     8
 71
     3
 72
     8
 73
     4
 74
     0
 42
0.0000000001
 43
0.0000000001
 40
0.0
 40
0.0
 40
0.0
 40
0.0
 40
1.0
 40
1.0
 40
1.0
 40
1.0
 10
-374.9567823688192
 20
170.1879269366513
 30
0.0
 10
-374.9687414336154
 20
170.3027339586963
 30
0.0
 10
-375.0193111933258
 20
170.4103655418635
 30
0.0
 10
-375.1016578966379
 20
170.4930539327412
 30
0.0
  0
SPLINE
  5
1F0B
330
A
100
AcDbEntity
  8
0
370
    13
100
AcDbSpline
210
0.0
220
0.0
230
1.0
 70
     8
 71
     3
 72
     8
 73
     4
 74
     0
 42
0.0000000001
 43
0.0000000001
 40
0.0
 40
0.0
 40
0.0
 40
0.0
 40
1.0
 40
1.0
 40
1.0
 40
1.0
 10
-393.052555843534
 20
190.8842844732252
 30
0.0
 10
-393.052555843534
 20
190.7513680102028
 30
0.0
 10
-392.9992525832987
 20
190.623235173099
 30
0.0
 10
-392.9056301903216
 20
190.5292710925562
 30
0.0
  0
SPLINE
  5
1F0C
330
A
100
AcDbEntity
  8
0
370
    13
100
AcDbSpline
210
0.0
220
0.0
230
1.0
 70
     8
 71
     3
 72
     8
 73
     4
 74
     0
 42
0.0000000001
 43
0.0000000001
 40
0.0
 40
0.0
 40
0.0
 40
0.0
 40
1.0
 40
1.0
 40
1.0
 40
1.0
 10
-387.5032080904592
 20
258.1241362465561
 30
0.0
 10
-388.0574253218789
 20
258.1241362465561
 30
0.0
 10
-388.506061095525
 20
257.6758421604756
 30
0.0
 10
-388.506061095525
 20
257.1216249290559
 30
0.0
  0
SPLINE
  5
1F0D
330
A
100
AcDbEntity
  8
0
370
    13
100
AcDbSpline
210
0.0
220
0.0
230
1.0
 70
     8
 71
     3
 72
     8
 73
     4
 74
     0
 42
0.0000000001
 43
0.0000000001
 40
0.0
 40
0.0
 40
0.0
 40
0.0
 40
1.0
 40
1.0
 40
1.0
 40
1.0
 10
-383.6523892260325
 20
257.6717419096884
 30
0.0
 10
-383.6776741058876
 20
257.9280075838961
 30
0.0
 10
-383.8939623349188
 20
258.1237945589906
 30
0.0
 10
-384.1519364469546
 20
258.1237945589906
 30
0.0
  0
SPLINE
  5
1F0E
330
A
100
AcDbEntity
  8
0
370
    13
100
AcDbSpline
210
0.0
220
0.0
230
1.0
 70
     8
 71
     3
 72
    11
 73
     7
 74
     0
 42
0.0000000001
 43
0.0000000001
 40
0.0
 40
0.0
 40
0.0
 40
0.0
 40
1.0
 40
1.0
 40
1.0
 40
2.0
 40
2.0
 40
2.0
 40
2.0
 10
-392.418725409327
 20
252.5604376157255
 30
0.0
 10
-392.4658782933812
 20
252.5751301810469
 30
0.0
 10
-392.5154229903947
 20
252.5819639323589
 30
0.0
 10
-392.5649676874081
 20
252.5819639323589
 30
0.0
 10
-392.8413929279868
 20
252.5819639323589
 30
0.0
 10
-393.0669067212896
 20
252.3574752017532
 30
0.0
 10
-393.0669067212896
 20
252.0810499611746
 30
0.0
  0
SPLINE
  5
1F0F
330
A
100
AcDbEntity
  8
0
370
    13
100
AcDbSpline
210
0.0
220
0.0
230
1.0
 70
     8
 71
     3
 72
     8
 73
     4
 74
     0
 42
0.0000000001
 43
0.0000000001
 40
0.0
 40
0.0
 40
0.0
 40
0.0
 40
1.0
 40
1.0
 40
1.0
 40
1.0
 10
-393.1021005405477
 20
219.8930562179991
 30
0.0
 10
-393.1021005405477
 20
219.7601397549767
 30
0.0
 10
-393.049138967878
 20
219.632006917873
 30
0.0
 10
-392.9551748873352
 20
219.5383845248958
 30
0.0
  0
SPLINE
  5
1F10
330
A
100
AcDbEntity
  8
0
370
    13
100
AcDbSpline
210
0.0
220
0.0
230
1.0
 70
     8
 71
     3
 72
    11
 73
     7
 74
     0
 42
0.0000000001
 43
0.0000000001
 40
0.0
 40
0.0
 40
0.0
 40
0.0
 40
1.0
 40
1.0
 40
1.0
 40
2.0
 40
2.0
 40
2.0
 40
2.0
 10
-391.4927521065236
 20
186.7310721132335
 30
0.0
 10
-391.6639375768943
 20
186.920025337016
 30
0.0
 10
-391.8962851215092
 20
187.0252651072239
 30
0.0
 10
-392.1385416055268
 20
187.0252651072239
 30
0.0
 10
-392.6438975150642
 20
187.0252651072239
 30
0.0
 10
-393.052555843534
 20
186.5766293335777
 30
0.0
 10
-393.052555843534
 20
186.0224121021581
 30
0.0
  0
SPLINE
  5
1F11
330
A
100
AcDbEntity
  8
0
370
    13
100
AcDbSpline
210
0.0
220
0.0
230
1.0
 70
    24
 71
     3
 72
     8
 73
     4
 74
     0
 42
0.0000000001
 43
0.0000000001
 40
2.0
 40
2.0
 40
2.0
 40
2.0
 40
3.0
 40
3.0
 40
3.0
 40
3.0
 10
-393.052555843534
 20
186.0224121021581
 30
0.0
 10
-393.052555843534
 20
186.0224121021581
 30
0.0
 10
-393.0628064705023
 20
185.464094619951
 30
0.0
 10
-393.0628064705023
 20
185.464094619951
 30
0.0
  0
SPLINE
  5
1F12
330
A
100
AcDbEntity
  8
0
370
    13
100
AcDbSpline
210
0.0
220
0.0
230
1.0
 70
    24
 71
     3
 72
     8
 73
     4
 74
     0
 42
0.0000000001
 43
0.0000000001
 40
3.0
 40
3.0
 40
3.0
 40
3.0
 40
3.964216847804521
 40
3.964216847804521
 40
3.964216847804521
 40
3.964216847804521
 10
-393.0628064705023
 20
185.464094619951
 30
0.0
 10
-393.0628064705023
 20
185.464094619951
 30
0.0
 10
-393.0545470048034
 20
164.5558925465021
 30
0.0
 10
-393.053955905367
 20
163.0595697926461
 30
0.0
  0
SPLINE
  5
1F13
330
A
100
AcDbEntity
  8
0
370
    13
100
AcDbSpline
210
0.0
220
0.0
230
1.0
 70
     8
 71
     3
 72
     8
 73
     4
 74
     0
 42
0.0000000001
 43
0.0000000001
 40
5.080960202124034
 40
5.080960202124034
 40
5.080960202124034
 40
5.080960202124034
 40
6.0
 40
6.0
 40
6.0
 40
6.0
 10
-391.0709694976262
 20
161.0767361018625
 30
0.0
 10
-388.9898041261599
 20
161.0760742535549
 30
0.0
 10
-376.1343104175584
 20
161.0722282849649
 30
0.0
 10
-376.0730756456676
 20
161.0781947499184
 30
0.0
  0
SPLINE
  5
1F14
330
A
100
AcDbEntity
  8
0
370
    13
100
AcDbSpline
210
0.0
220
0.0
230
1.0
 70
     8
 71
     3
 72
     8
 73
     4
 74
     0
 42
0.0000000001
 43
0.0000000001
 40
6.0
 40
6.0
 40
6.0
 40
6.0
 40
7.0
 40
7.0
 40
7.0
 40
7.0
 10
-376.0730756456676
 20
161.0781947499184
 30
0.0
 10
-374.971816621706
 20
161.1871930833481
 30
0.0
 10
-374.1661173419972
 20
162.2194312190563
 30
0.0
 10
-374.2761407381236
 20
163.3217153057148
 30
0.0
  0
SPLINE
  5
1F15
330
A
100
AcDbEntity
  8
0
370
    13
100
AcDbSpline
210
0.0
220
0.0
230
1.0
 70
    24
 71
     3
 72
     8
 73
     4
 74
     0
 42
0.0000000001
 43
0.0000000001
 40
7.0
 40
7.0
 40
7.0
 40
7.0
 40
8.0
 40
8.0
 40
8.0
 40
8.0
 10
-374.2761407381236
 20
163.3217153057148
 30
0.0
 10
-374.2761407381236
 20
163.3217153057148
 30
0.0
 10
-374.9567823688192
 20
170.1879269366513
 30
0.0
 10
-374.9567823688192
 20
170.1879269366513
 30
0.0
  0
SPLINE
  5
1F16
330
A
100
AcDbEntity
  8
0
370
    13
100
AcDbSpline
210
0.0
220
0.0
230
1.0
 70
     8
 71
     3
 72
     8
 73
     4
 74
     0
 42
0.0000000001
 43
0.0000000001
 40
8.0
 40
8.0
 40
8.0
 40
8.0
 40
9.0
 40
9.0
 40
9.0
 40
9.0
 10
-374.9567823688192
 20
170.1879269366513
 30
0.0
 10
-374.9687414336154
 20
170.3027339586963
 30
0.0
 10
-375.0193111933258
 20
170.4103655418635
 30
0.0
 10
-375.1009745215066
 20
170.4930539327412
 30
0.0
  0
SPLINE
  5
1F17
330
A
100
AcDbEntity
  8
0
370
    13
100
AcDbSpline
210
0.0
220
0.0
230
1.0
 70
    24
 71
     3
 72
     8
 73
     4
 74
     0
 42
0.0000000001
 43
0.0000000001
 40
9.0
 40
9.0
 40
9.0
 40
9.0
 40
10.0
 40
10.0
 40
10.0
 40
10.0
 10
-375.1009745215066
 20
170.4930539327412
 30
0.0
 10
-375.1009745215066
 20
170.4930539327412
 30
0.0
 10
-391.4927521065236
 20
186.7310721132335
 30
0.0
 10
-391.4927521065236
 20
186.7310721132335
 30
0.0
  0
SPLINE
  5
1F18
330
A
100
AcDbEntity
  8
0
370
    13
100
AcDbSpline
210
0.0
220
0.0
230
1.0
 70
     8
 71
     3
 72
     8
 73
     4
 74
     0
 42
0.0000000001
 43
0.0000000001
 40
0.0
 40
0.0
 40
0.0
 40
0.0
 40
1.0
 40
1.0
 40
1.0
 40
1.0
 10
-397.3140831618242
 20
161.6197695414105
 30
0.0
 10
-396.206332074116
 20
161.6197695414105
 30
0.0
 10
-395.3083771516924
 20
162.5177244638341
 30
0.0
 10
-395.3083771516924
 20
163.6254755515422
 30
0.0
  0
SPLINE
  5
1F19
330
A
100
AcDbEntity
  8
0
370
    13
100
AcDbSpline
210
0.0
220
0.0
230
1.0
 70
    24
 71
     3
 72
     8
 73
     4
 74
     0
 42
0.0000000001
 43
0.0000000001
 40
1.0
 40
1.0
 40
1.0
 40
1.0
 40
2.0
 40
2.0
 40
2.0
 40
2.0
 10
-395.3083771516924
 20
163.6254755515422
 30
0.0
 10
-395.3083771516924
 20
163.6254755515422
 30
0.0
 10
-395.3083771516924
 20
168.0879151584111
 30
0.0
 10
-395.3083771516924
 20
168.0879151584111
 30
0.0
  0
SPLINE
  5
1F1A
330
A
100
AcDbEntity
  8
0
370
    13
100
AcDbSpline
210
0.0
220
0.0
230
1.0
 70
     8
 71
     3
 72
     8
 73
     4
 74
     0
 42
0.0000000001
 43
0.0000000001
 40
2.0
 40
2.0
 40
2.0
 40
2.0
 40
3.0
 40
3.0
 40
3.0
 40
3.0
 10
-395.3083771516924
 20
168.0879151584111
 30
0.0
 10
-395.3083771516924
 20
170.3034173338275
 30
0.0
 10
-396.8613471373906
 20
172.0801926750004
 30
0.0
 10
-398.9647757912869
 20
172.0801926750004
 30
0.0
  0
SPLINE
  5
1F1F
330
A
100
AcDbEntity
  8
0
370
    13
100
AcDbSpline
210
0.0
220
0.0
230
1.0
 70
     8
 71
     3
 72
     8
 73
     4
 74
     0
 42
0.0000000001
 43
0.0000000001
 40
0.0
 40
0.0
 40
0.0
 40
0.0
 40
1.0
 40
1.0
 40
1.0
 40
1.0
 10
-437.7315936382448
 20
179.0008078570101
 30
0.0
 10
-437.7862636487424
 20
178.4500075012465
 30
0.0
 10
-437.3837556964537
 20
177.9579774067678
 30
0.0
 10
-436.83295534069
 20
177.9033073962702
 30
0.0
  0
SPLINE
  5
1F20
330
A
100
AcDbEntity
  8
0
370
    13
100
AcDbSpline
210
0.0
220
0.0
230
1.0
 70
     8
 71
     3
 72
     8
 73
     4
 74
     0
 42
0.0000000001
 43
0.0000000001
 40
1.0
 40
1.0
 40
1.0
 40
1.0
 40
2.0
 40
2.0
 40
2.0
 40
2.0
 10
-436.83295534069
 20
177.9033073962702
 30
0.0
 10
-436.5332953456499
 20
177.8739222656277
 30
0.0
 10
-436.2367105387003
 20
177.9798454109669
 30
0.0
 10
-436.0241808728908
 20
178.1923750767764
 30
0.0
  0
SPLINE
  5
1F21
330
A
100
AcDbEntity
  8
0
370
    13
100
AcDbSpline
210
0.0
220
0.0
230
1.0
 70
     8
 71
     3
 72
     8
 73
     4
 74
     0
 42
0.0000000001
 43
0.0000000001
 40
0.0
 40
0.0
 40
0.0
 40
0.0
 40
1.0
 40
1.0
 40
1.0
 40
1.0
 10
-433.5258753721091
 20
215.3565498925126
 30
0.0
 10
-433.7937584235474
 20
215.4242040305034
 30
0.0
 10
-434.06676678847
 20
215.2625858119697
 30
0.0
 10
-434.1138056935642
 20
214.9349031815712
 30
0.0
  0
SPLINE
  5
1F22
330
A
100
AcDbEntity
  8
0
370
    13
100
AcDbSpline
210
0.0
220
0.0
230
1.0
 70
     8
 71
     3
 72
     8
 73
     4
 74
     0
 42
0.0000000001
 43
0.0000000001
 40
1.0
 40
1.0
 40
1.0
 40
1.0
 40
2.0
 40
2.0
 40
2.0
 40
2.0
 10
-434.1138056935642
 20
214.9349031815712
 30
0.0
 10
-434.119272694614
 20
214.9103016768473
 30
0.0
 10
-434.1243980080981
 20
214.8860418596889
 30
0.0
 10
-434.1264481334917
 20
214.8607569798338
 30
0.0
  0
SPLINE
  5
1F23
330
A
100
AcDbEntity
  8
0
370
    13
100
AcDbSpline
210
0.0
220
0.0
230
1.0
 70
     8
 71
     3
 72
    11
 73
     7
 74
     0
 42
0.0000000001
 43
0.0000000001
 40
0.0
 40
0.0
 40
0.0
 40
0.0
 40
1.0
 40
1.0
 40
1.0
 40
2.0
 40
2.0
 40
2.0
 40
2.0
 10
-427.229042178575
 20
216.0700430863724
 30
0.0
 10
-426.9625258773991
 20
215.1379194073879
 30
0.0
 10
-425.9911081283693
 20
214.5994198039863
 30
0.0
 10
-425.0589844493847
 20
214.8659361051623
 30
0.0
 10
-424.1268607704002
 20
215.1324524063381
 30
0.0
 10
-423.5883611669986
 20
216.1038701553679
 30
0.0
 10
-423.8548774681745
 20
217.0359938343524
 30
0.0
  0
SPLINE
  5
1F24
330
A
100
AcDbEntity
  8
0
370
    13
100
AcDbSpline
210
0.0
220
0.0
230
1.0
 70
     8
 71
     3
 72
     8
 73
     4
 74
     0
 42
0.0000000001
 43
0.0000000001
 40
2.0
 40
2.0
 40
2.0
 40
2.0
 40
3.0
 40
3.0
 40
3.0
 40
3.0
 10
-423.8548774681745
 20
217.0359938343524
 30
0.0
 10
-423.9973611830339
 20
217.5355410552746
 30
0.0
 10
-424.3551080642276
 20
217.946249509138
 30
0.0
 10
-424.8303954679916
 20
218.1570707371194
 30
0.0
  0
SPLINE
  5
1F25
330
A
100
AcDbEntity
  8
0
370
    13
100
AcDbSpline
210
0.0
220
0.0
230
1.0
 70
     8
 71
     3
 72
     8
 73
     4
 74
     0
 42
0.0000000001
 43
0.0000000001
 40
0.0
 40
0.0
 40
0.0
 40
0.0
 40
1.0
 40
1.0
 40
1.0
 40
1.0
 10
-427.229042178575
 20
216.0700430863725
 30
0.0
 10
-427.2389511179778
 20
216.1031867802367
 30
0.0
 10
-427.2556938086925
 20
216.1332552860105
 30
0.0
 10
-427.2799536258509
 20
216.1568317280375
 30
0.0
  0
SPLINE
  5
1F26
330
A
100
AcDbEntity
  8
0
370
    13
100
AcDbSpline
210
0.0
220
0.0
230
1.0
 70
     8
 71
     3
 72
     8
 73
     4
 74
     0
 42
0.0000000001
 43
0.0000000001
 40
1.0
 40
1.0
 40
1.0
 40
1.0
 40
2.0
 40
2.0
 40
2.0
 40
2.0
 10
-427.2799536258509
 20
216.1568317280375
 30
0.0
 10
-427.3578583908099
 20
216.2354198681278
 30
0.0
 10
-427.484966165217
 20
216.2354198681278
 30
0.0
 10
-427.5635543053073
 20
216.1568317280375
 30
0.0
  0
SPLINE
  5
1F27
330
A
100
AcDbEntity
  8
0
370
    13
100
AcDbSpline
210
0.0
220
0.0
230
1.0
 70
     8
 71
     3
 72
     8
 73
     4
 74
     0
 42
0.0000000001
 43
0.0000000001
 40
0.0
 40
0.0
 40
0.0
 40
0.0
 40
1.0
 40
1.0
 40
1.0
 40
1.0
 10
-424.8908741671045
 20
218.4823572995804
 30
0.0
 10
-424.907958545385
 20
218.4649312337342
 30
0.0
 10
-424.9226511107063
 20
218.4444299797976
 30
0.0
 10
-424.9322183625433
 20
218.4215369129017
 30
0.0
  0
SPLINE
  5
1F28
330
A
100
AcDbEntity
  8
0
370
    13
100
AcDbSpline
210
0.0
220
0.0
230
1.0
 70
     8
 71
     3
 72
     8
 73
     4
 74
     0
 42
0.0000000001
 43
0.0000000001
 40
1.0
 40
1.0
 40
1.0
 40
1.0
 40
2.0
 40
2.0
 40
2.0
 40
2.0
 10
-424.9322183625433
 20
218.4215369129017
 30
0.0
 10
-424.9769794336383
 20
218.3207390810468
 30
0.0
 10
-424.9318766749777
 20
218.2018318082144
 30
0.0
 10
-424.8303954679916
 20
218.1570707371194
 30
0.0
  0
SPLINE
  5
1F29
330
A
100
AcDbEntity
  8
0
370
    13
100
AcDbSpline
210
0.0
220
0.0
230
1.0
 70
     8
 71
     3
 72
     8
 73
     4
 74
     0
 42
0.0000000001
 43
0.0000000001
 40
0.0
 40
0.0
 40
0.0
 40
0.0
 40
1.0
 40
1.0
 40
1.0
 40
1.0
 10
-431.7001530145697
 20
239.9586585084567
 30
0.0
 10
-431.7291964576464
 20
239.6600235761133
 30
0.0
 10
-431.623614999873
 20
239.3641221442949
 30
0.0
 10
-431.4110853340634
 20
239.1512507909197
 30
0.0
  0
SPLINE
  5
1F2A
330
A
100
AcDbEntity
  8
0
370
    13
100
AcDbSpline
210
0.0
220
0.0
230
1.0
 70
     8
 71
     3
 72
     8
 73
     4
 74
     0
 42
0.0000000001
 43
0.0000000001
 40
1.0
 40
1.0
 40
1.0
 40
1.0
 40
2.0
 40
2.0
 40
2.0
 40
2.0
 10
-431.4110853340634
 20
239.1512507909197
 30
0.0
 10
-431.0198530714399
 20
238.7600185282961
 30
0.0
 10
-430.3853392621017
 20
238.7600185282961
 30
0.0
 10
-429.9930819367812
 20
239.1512507909197
 30
0.0
  0
SPLINE
  5
1F2B
330
A
100
AcDbEntity
  8
0
370
    13
100
AcDbSpline
210
0.0
220
0.0
230
1.0
 70
     8
 71
     3
 72
     8
 73
     4
 74
     0
 42
0.0000000001
 43
0.0000000001
 40
0.0
 40
0.0
 40
0.0
 40
0.0
 40
1.0
 40
1.0
 40
1.0
 40
1.0
 10
-425.2945362220757
 20
239.2704997513179
 30
0.0
 10
-425.3314384791616
 20
239.8230085449095
 30
0.0
 10
-425.8094593834504
 20
240.2408924376508
 30
0.0
 10
-426.3616264894763
 20
240.2046735556961
 30
0.0
  0
SPLINE
  5
1F2C
330
A
100
AcDbEntity
  8
0
370
    13
100
AcDbSpline
210
0.0
220
0.0
230
1.0
 70
     8
 71
     3
 72
     8
 73
     4
 74
     0
 42
0.0000000001
 43
0.0000000001
 40
1.0
 40
1.0
 40
1.0
 40
1.0
 40
2.0
 40
2.0
 40
2.0
 40
2.0
 10
-426.3616264894763
 20
240.2046735556961
 30
0.0
 10
-426.6045663486253
 20
240.1882725525469
 30
0.0
 10
-426.8324719548873
 20
240.0847412201668
 30
0.0
 10
-427.0039991128236
 20
239.912872374665
 30
0.0
  0
SPLINE
  5
1F2D
330
A
100
AcDbEntity
  8
0
370
    13
100
AcDbSpline
210
0.0
220
0.0
230
1.0
 70
    24
 71
     3
 72
     8
 73
     4
 74
     0
 42
0.0000000001
 43
0.0000000001
 40
0.0
 40
0.0
 40
0.0
 40
0.0
 40
1.0
 40
1.0
 40
1.0
 40
1.0
 10
-426.1197116930244
 20
265.8278241008031
 30
0.0
 10
-426.1197116930244
 20
265.8278241008031
 30
0.0
 10
-426.1197116930244
 20
265.8397831655995
 30
0.0
 10
-426.1197116930244
 20
265.8397831655995
 30
0.0
  0
SPLINE
  5
1F2E
330
A
100
AcDbEntity
  8
0
370
    13
100
AcDbSpline
210
0.0
220
0.0
230
1.0
 70
     8
 71
     3
 72
     8
 73
     4
 74
     0
 42
0.0000000001
 43
0.0000000001
 40
1.0
 40
1.0
 40
1.0
 40
1.0
 40
2.0
 40
2.0
 40
2.0
 40
2.0
 10
-426.1197116930244
 20
265.8397831655995
 30
0.0
 10
-426.1210784432868
 20
266.0065266976172
 30
0.0
 10
-426.2577534695309
 20
266.1394431606396
 30
0.0
 10
-426.4234719388518
 20
266.1380764103772
 30
0.0
  0
SPLINE
  5
1F2F
330
A
100
AcDbEntity
  8
0
370
    13
100
AcDbSpline
210
0.0
220
0.0
230
1.0
 70
     8
 71
     3
 72
     8
 73
     4
 74
     0
 42
0.0000000001
 43
0.0000000001
 40
0.0
 40
0.0
 40
0.0
 40
0.0
 40
1.0
 40
1.0
 40
1.0
 40
1.0
 10
-380.5679755712692
 20
217.5285782639766
 30
0.0
 10
-380.0872211664556
 20
217.6502190373337
 30
0.0
 10
-379.7680849801758
 20
218.1056885622921
 30
0.0
 10
-379.8172879896236
 20
218.5990854070332
 30
0.0
  0
SPLINE
  5
1F30
330
A
100
AcDbEntity
  8
0
370
    13
100
AcDbSpline
210
0.0
220
0.0
230
1.0
 70
    24
 71
     3
 72
     8
 73
     4
 74
     0
 42
0.0000000001
 43
0.0000000001
 40
1.0
 40
1.0
 40
1.0
 40
1.0
 40
2.0
 40
2.0
 40
2.0
 40
2.0
 10
-379.8172879896236
 20
218.5990854070332
 30
0.0
 10
-379.8172879896236
 20
218.5990854070332
 30
0.0
 10
-381.1028279919653
 20
231.0116840179612
 30
0.0
 10
-381.1028279919653
 20
231.0116840179612
 30
0.0
  0
SPLINE
  5
1F31
330
A
100
AcDbEntity
  8
0
370
    13
100
AcDbSpline
210
0.0
220
0.0
230
1.0
 70
     8
 71
     3
 72
     8
 73
     4
 74
     0
 42
0.0000000001
 43
0.0000000001
 40
2.0
 40
2.0
 40
2.0
 40
2.0
 40
3.0
 40
3.0
 40
3.0
 40
3.0
 10
-381.1028279919653
 20
231.0116840179612
 30
0.0
 10
-381.1264044339924
 20
231.2419814371826
 30
0.0
 10
-381.2278856409786
 20
231.4572446035169
 30
0.0
 10
-381.3918956724715
 20
231.6219380101409
 30
0.0
  0
SPLINE
  5
1F32
330
A
100
AcDbEntity
  8
0
370
    13
100
AcDbSpline
210
0.0
220
0.0
230
1.0
 70
     8
 71
     3
 72
     8
 73
     4
 74
     0
 42
0.0000000001
 43
0.0000000001
 40
0.0
 40
0.0
 40
0.0
 40
0.0
 40
1.0
 40
1.0
 40
1.0
 40
1.0
 10
-377.2679570626062
 20
174.824968889547
 30
0.0
 10
-377.0550857092311
 20
174.6124392237375
 30
0.0
 10
-376.7591842774126
 20
174.5058327032671
 30
0.0
 10
-376.4605493450694
 20
174.5362428966064
 30
0.0
  0
SPLINE
  5
1F33
330
A
100
AcDbEntity
  8
0
370
    13
100
AcDbSpline
210
0.0
220
0.0
230
1.0
 70
     8
 71
     3
 72
     8
 73
     4
 74
     0
 42
0.0000000001
 43
0.0000000001
 40
1.0
 40
1.0
 40
1.0
 40
1.0
 40
2.0
 40
2.0
 40
2.0
 40
2.0
 10
-376.4605493450694
 20
174.5362428966064
 30
0.0
 10
-375.9090656141746
 20
174.5898878444071
 30
0.0
 10
-375.5065576618858
 20
175.0812345637546
 30
0.0
 10
-375.5612276723835
 20
175.6334016697807
 30
0.0
  0
SPLINE
  5
1F34
330
A
100
AcDbEntity
  8
0
370
    13
100
AcDbSpline
210
0.0
220
0.0
230
1.0
 70
     8
 71
     3
 72
     8
 73
     4
 74
     0
 42
0.0000000001
 43
0.0000000001
 40
0.0
 40
0.0
 40
0.0
 40
0.0
 40
1.0
 40
1.0
 40
1.0
 40
1.0
 10
-388.7859032117594
 20
215.715584040849
 30
0.0
 10
-388.6615289378774
 20
215.5901847042701
 30
0.0
 10
-388.4800928405383
 20
215.5406400072566
 30
0.0
 10
-388.3089073701677
 20
215.5840343280891
 30
0.0
  0
SPLINE
  5
1F35
330
A
100
AcDbEntity
  8
0
370
    13
100
AcDbSpline
210
0.0
220
0.0
230
1.0
 70
    24
 71
     3
 72
     8
 73
     4
 74
     0
 42
0.0000000001
 43
0.0000000001
 40
1.0
 40
1.0
 40
1.0
 40
1.0
 40
2.0
 40
2.0
 40
2.0
 40
2.0
 10
-388.3089073701677
 20
215.5840343280891
 30
0.0
 10
-388.3089073701677
 20
215.5840343280891
 30
0.0
 10
-388.0666508861501
 20
215.6428045893739
 30
0.0
 10
-388.0666508861501
 20
215.6428045893739
 30
0.0
  0
SPLINE
  5
1F36
330
A
100
AcDbEntity
  8
0
370
    13
100
AcDbSpline
210
0.0
220
0.0
230
1.0
 70
    24
 71
     3
 72
     8
 73
     4
 74
     0
 42
0.0000000001
 43
0.0000000001
 40
2.0
 40
2.0
 40
2.0
 40
2.0
 40
3.0
 40
3.0
 40
3.0
 40
3.0
 10
-388.0666508861501
 20
215.6428045893739
 30
0.0
 10
-388.0666508861501
 20
215.6428045893739
 30
0.0
 10
-380.5679755712692
 20
217.5285782639766
 30
0.0
 10
-380.5679755712692
 20
217.5285782639766
 30
0.0
  0
SPLINE
  5
1F37
330
A
100
AcDbEntity
  8
0
370
    13
100
AcDbSpline
210
0.0
220
0.0
230
1.0
 70
     8
 71
     3
 72
     8
 73
     4
 74
     0
 42
0.0000000001
 43
0.0000000001
 40
0.0
 40
0.0
 40
0.0
 40
0.0
 40
1.0
 40
1.0
 40
1.0
 40
1.0
 10
-393.052555843534
 20
212.4613516659779
 30
0.0
 10
-393.052555843534
 20
212.6909657100679
 30
0.0
 10
-392.8970880011813
 20
212.8908529359499
 30
0.0
 10
-392.6746493959691
 20
212.9468896967099
 30
0.0
  0
SPLINE
  5
1F38
330
A
100
AcDbEntity
  8
0
370
    13
100
AcDbSpline
210
0.0
220
0.0
230
1.0
 70
    24
 71
     3
 72
     8
 73
     4
 74
     0
 42
0.0000000001
 43
0.0000000001
 40
1.0
 40
1.0
 40
1.0
 40
1.0
 40
2.0
 40
2.0
 40
2.0
 40
2.0
 10
-392.6746493959691
 20
212.9468896967099
 30
0.0
 10
-392.6746493959691
 20
212.9468896967099
 30
0.0
 10
-391.9830737631743
 20
213.1512188609447
 30
0.0
 10
-391.9830737631743
 20
213.1512188609447
 30
0.0
  0
SPLINE
  5
1F39
330
A
100
AcDbEntity
  8
0
370
    13
100
AcDbSpline
210
0.0
220
0.0
230
1.0
 70
    24
 71
     3
 72
     8
 73
     4
 74
     0
 42
0.0000000001
 43
0.0000000001
 40
2.0
 40
2.0
 40
2.0
 40
2.0
 40
3.0
 40
3.0
 40
3.0
 40
3.0
 10
-391.9830737631743
 20
213.1512188609447
 30
0.0
 10
-391.9830737631743
 20
213.1512188609447
 30
0.0
 10
-380.7511201064365
 20
215.97082465236
 30
0.0
 10
-380.7511201064365
 20
215.97082465236
 30
0.0
  0
SPLINE
  5
1F3A
330
A
100
AcDbEntity
  8
0
370
    13
100
AcDbSpline
210
0.0
220
0.0
230
1.0
 70
     8
 71
     3
 72
     8
 73
     4
 74
     0
 42
0.0000000001
 43
0.0000000001
 40
0.0
 40
0.0
 40
0.0
 40
0.0
 40
1.0
 40
1.0
 40
1.0
 40
1.0
 10
-392.0633703410923
 20
218.2604730295135
 30
0.0
 10
-392.9493661987196
 20
217.8671906414963
 30
0.0
 10
-393.3487989629179
 20
216.8308522550006
 30
0.0
 10
-392.9555165749006
 20
215.9448563973734
 30
0.0
  0
SPLINE
  5
1F3B
330
A
100
AcDbEntity
  8
0
370
    13
100
AcDbSpline
210
0.0
220
0.0
230
1.0
 70
     8
 71
     3
 72
     8
 73
     4
 74
     0
 42
0.0000000001
 43
0.0000000001
 40
1.0
 40
1.0
 40
1.0
 40
1.0
 40
2.0
 40
2.0
 40
2.0
 40
2.0
 10
-392.9555165749005
 20
215.9448563973734
 30
0.0
 10
-392.5629175620144
 20
215.0588605397462
 30
0.0
 10
-391.5265791755188
 20
214.6594277755479
 30
0.0
 10
-390.640241630326
 20
215.052026788434
 30
0.0
  0
SPLINE
  5
1F3C
330
A
100
AcDbEntity
  8
0
370
    13
100
AcDbSpline
210
0.0
220
0.0
230
1.0
 70
     8
 71
     3
 72
     8
 73
     4
 74
     0
 42
0.0000000001
 43
0.0000000001
 40
2.0
 40
2.0
 40
2.0
 40
2.0
 40
3.0
 40
3.0
 40
3.0
 40
3.0
 10
-390.640241630326
 20
215.052026788434
 30
0.0
 10
-390.1656376016934
 20
215.2631897039811
 30
0.0
 10
-389.8078907204995
 20
215.6738981578445
 30
0.0
 10
-389.6647236305089
 20
216.1734453787666
 30
0.0
  0
SPLINE
  5
1F3D
330
A
100
AcDbEntity
  8
0
370
    13
100
AcDbSpline
210
0.0
220
0.0
230
1.0
 70
     8
 71
     3
 72
     8
 73
     4
 74
     0
 42
0.0000000001
 43
0.0000000001
 40
0.0
 40
0.0
 40
0.0
 40
0.0
 40
1.0
 40
1.0
 40
1.0
 40
1.0
 10
-389.3295281286452
 20
216.2602340204316
 30
0.0
 10
-389.3537879458036
 20
216.2841521500243
 30
0.0
 10
-389.3838564515773
 20
216.3022615910016
 30
0.0
 10
-389.4163167703102
 20
216.3114871552732
 30
0.0
  0
SPLINE
  5
1F3E
330
A
100
AcDbEntity
  8
0
370
    13
100
AcDbSpline
210
0.0
220
0.0
230
1.0
 70
     8
 71
     3
 72
     8
 73
     4
 74
     0
 42
0.0000000001
 43
0.0000000001
 40
1.0
 40
1.0
 40
1.0
 40
1.0
 40
2.0
 40
2.0
 40
2.0
 40
2.0
 10
-389.4163167703102
 20
216.3114871552732
 30
0.0
 10
-389.5225816032151
 20
216.3415556610468
 30
0.0
 10
-389.6339717496039
 20
216.280051899237
 30
0.0
 10
-389.6647236305089
 20
216.1734453787666
 30
0.0
  0
SPLINE
  5
1F3F
330
A
100
AcDbEntity
  8
0
370
    13
100
AcDbSpline
210
0.0
220
0.0
230
1.0
 70
     8
 71
     3
 72
     8
 73
     4
 74
     0
 42
0.0000000001
 43
0.0000000001
 40
0.0
 40
0.0
 40
0.0
 40
0.0
 40
1.0
 40
1.0
 40
1.0
 40
1.0
 10
-392.0633703410924
 20
218.2604730295135
 30
0.0
 10
-392.0408189617623
 20
218.2703819689163
 30
0.0
 10
-392.01997602026
 20
218.2843911591063
 30
0.0
 10
-392.0028916419795
 20
218.3018172249524
 30
0.0
  0
SPLINE
  5
1F40
330
A
100
AcDbEntity
  8
0
370
    13
100
AcDbSpline
210
0.0
220
0.0
230
1.0
 70
     8
 71
     3
 72
     8
 73
     4
 74
     0
 42
0.0000000001
 43
0.0000000001
 40
1.0
 40
1.0
 40
1.0
 40
1.0
 40
2.0
 40
2.0
 40
2.0
 40
2.0
 10
-392.0028916419795
 20
218.3018172249524
 30
0.0
 10
-391.9239618143235
 20
218.3800636774772
 30
0.0
 10
-391.9239618143235
 20
218.5075131394498
 30
0.0
 10
-392.0028916419795
 20
218.5857595919745
 30
0.0
  0
SPLINE
  5
1F41
330
A
100
AcDbEntity
  8
0
370
    13
100
AcDbSpline
210
0.0
220
0.0
230
1.0
 70
     8
 71
     3
 72
     8
 73
     4
 74
     0
 42
0.0000000001
 43
0.0000000001
 40
0.0
 40
0.0
 40
0.0
 40
0.0
 40
1.0
 40
1.0
 40
1.0
 40
1.0
 10
-379.5063523049186
 20
215.0981546097916
 30
0.0
 10
-379.5111359308373
 20
215.1480409943707
 30
0.0
 10
-379.5203614951087
 20
215.1982690665155
 30
0.0
 10
-379.532320559905
 20
215.2461053257009
 30
0.0
  0
SPLINE
  5
1F42
330
A
100
AcDbEntity
  8
0
370
    13
100
AcDbSpline
210
0.0
220
0.0
230
1.0
 70
     8
 71
     3
 72
     8
 73
     4
 74
     0
 42
0.0000000001
 43
0.0000000001
 40
1.0
 40
1.0
 40
1.0
 40
1.0
 40
2.0
 40
2.0
 40
2.0
 40
2.0
 10
-379.532320559905
 20
215.2461053257009
 30
0.0
 10
-379.6693372737148
 20
215.7825548037089
 30
0.0
 10
-380.2146706284286
 20
216.1081830537353
 30
0.0
 10
-380.7511201064366
 20
215.97082465236
 30
0.0
  0
SPLINE
  5
1F43
330
A
100
AcDbEntity
  8
0
370
    13
100
AcDbSpline
210
0.0
220
0.0
230
1.0
 70
     8
 71
     3
 72
     8
 73
     4
 74
     0
 42
0.0000000001
 43
0.0000000001
 40
0.0
 40
0.0
 40
0.0
 40
0.0
 40
1.0
 40
1.0
 40
1.0
 40
1.0
 10
-393.0669067212896
 20
245.6873922334771
 30
0.0
 10
-393.0669067212896
 20
245.5544757704546
 30
0.0
 10
-393.0136034610544
 20
245.4273679960476
 30
0.0
 10
-392.9199810680774
 20
245.3334039155048
 30
0.0
  0
SPLINE
  5
1F44
330
A
100
AcDbEntity
  8
0
370
    13
100
AcDbSpline
210
0.0
220
0.0
230
1.0
 70
    24
 71
     3
 72
     8
 73
     4
 74
     0
 42
0.0000000001
 43
0.0000000001
 40
1.0
 40
1.0
 40
1.0
 40
1.0
 40
2.0
 40
2.0
 40
2.0
 40
2.0
 10
-392.9199810680774
 20
245.3334039155048
 30
0.0
 10
-392.9199810680774
 20
245.3334039155048
 30
0.0
 10
-392.4928716110646
 20
244.8324899443203
 30
0.0
 10
-392.4928716110646
 20
244.8324899443203
 30
0.0
  0
SPLINE
  5
1F45
330
A
100
AcDbEntity
  8
0
370
    13
100
AcDbSpline
210
0.0
220
0.0
230
1.0
 70
    24
 71
     3
 72
     8
 73
     4
 74
     0
 42
0.0000000001
 43
0.0000000001
 40
2.0
 40
2.0
 40
2.0
 40
2.0
 40
3.0
 40
3.0
 40
3.0
 40
3.0
 10
-392.4928716110646
 20
244.8324899443203
 30
0.0
 10
-392.4928716110646
 20
244.8324899443203
 30
0.0
 10
-383.3503374180331
 20
235.6492949309813
 30
0.0
 10
-383.3503374180331
 20
235.6492949309813
 30
0.0
  0
SPLINE
  5
1F46
330
A
100
AcDbEntity
  8
0
370
    13
100
AcDbSpline
210
0.0
220
0.0
230
1.0
 70
     8
 71
     3
 72
     8
 73
     4
 74
     0
 42
0.0000000001
 43
0.0000000001
 40
0.0
 40
0.0
 40
0.0
 40
0.0
 40
1.0
 40
1.0
 40
1.0
 40
1.0
 10
-391.3905875244062
 20
241.6875975904442
 30
0.0
 10
-391.7825031621611
 20
242.0788298530679
 30
0.0
 10
-392.4170169714991
 20
242.0788298530679
 30
0.0
 10
-392.8082492341229
 20
241.6875975904442
 30
0.0
  0
SPLINE
  5
1F47
330
A
100
AcDbEntity
  8
0
370
    13
100
AcDbSpline
210
0.0
220
0.0
230
1.0
 70
     8
 71
     3
 72
     8
 73
     4
 74
     0
 42
0.0000000001
 43
0.0000000001
 40
1.0
 40
1.0
 40
1.0
 40
1.0
 40
2.0
 40
2.0
 40
2.0
 40
2.0
 10
-392.8082492341229
 20
241.6875975904442
 30
0.0
 10
-392.9972024579052
 20
241.5000111169242
 30
0.0
 10
-393.1021005405476
 20
241.2444288178478
 30
0.0
 10
-393.1021005405476
 20
240.9785958918031
 30
0.0
  0
SPLINE
  5
1F48
330
A
100
AcDbEntity
  8
0
370
    13
100
AcDbSpline
210
0.0
220
0.0
230
1.0
 70
     8
 71
     3
 72
     8
 73
     4
 74
     0
 42
0.0000000001
 43
0.0000000001
 40
0.0
 40
0.0
 40
0.0
 40
0.0
 40
1.0
 40
1.0
 40
1.0
 40
1.0
 10
-389.1539007199219
 20
251.5401585448136
 30
0.0
 10
-388.8887511690085
 20
251.4595202793297
 30
0.0
 10
-388.6089090527738
 20
251.6091794330669
 30
0.0
 10
-388.5275874121585
 20
251.8733039212836
 30
0.0
  0
SPLINE
  5
1F49
330
A
100
AcDbEntity
  8
0
370
    13
100
AcDbSpline
210
0.0
220
0.0
230
1.0
 70
     8
 71
     3
 72
     8
 73
     4
 74
     0
 42
0.0000000001
 43
0.0000000001
 40
1.0
 40
1.0
 40
1.0
 40
1.0
 40
2.0
 40
2.0
 40
2.0
 40
2.0
 10
-388.5275874121585
 20
251.8733039212836
 30
0.0
 10
-388.5135782219684
 20
251.9207984929034
 30
0.0
 10
-388.5060610955251
 20
251.9703431899168
 30
0.0
 10
-388.5060610955251
 20
252.0195461993647
 30
0.0
  0
SPLINE
  5
1F4C
330
A
100
AcDbEntity
  8
0
370
    13
100
AcDbSpline
210
0.0
220
0.0
230
1.0
 70
     8
 71
     3
 72
     8
 73
     4
 74
     0
 42
0.0000000001
 43
0.0000000001
 40
0.0
 40
0.0
 40
0.0
 40
0.0
 40
1.0
 40
1.0
 40
1.0
 40
1.0
 10
-393.762582604872
 20
255.0855087255848
 30
0.0
 10
-394.2925400191334
 20
255.2471269441184
 30
0.0
 10
-394.8529076267341
 20
254.9481503242095
 30
0.0
 10
-395.0145258452677
 20
254.4185345975138
 30
0.0
  0
SPLINE
  5
1F4D
330
A
100
AcDbEntity
  8
0
370
    13
100
AcDbSpline
210
0.0
220
0.0
230
1.0
 70
     8
 71
     3
 72
     8
 73
     4
 74
     0
 42
0.0000000001
 43
0.0000000001
 40
1.0
 40
1.0
 40
1.0
 40
1.0
 40
2.0
 40
2.0
 40
2.0
 40
2.0
 10
-395.0145258452677
 20
254.4185345975138
 30
0.0
 10
-395.043227600779
 20
254.3242288294053
 30
0.0
 10
-395.0579201661001
 20
254.225481122944
 30
0.0
 10
-395.0579201661001
 20
254.1267334164826
 30
0.0
  0
SPLINE
  5
1F4E
330
A
100
AcDbEntity
  8
0
370
    13
100
AcDbSpline
210
0.0
220
0.0
230
1.0
 70
     8
 71
     3
 72
     8
 73
     4
 74
     0
 42
0.0000000001
 43
0.0000000001
 40
0.0
 40
0.0
 40
0.0
 40
0.0
 40
1.0
 40
1.0
 40
1.0
 40
1.0
 10
-390.9334095616199
 20
254.2227476224192
 30
0.0
 10
-390.6682600107062
 20
254.1421093569351
 30
0.0
 10
-390.3884178944715
 20
254.2910851355412
 30
0.0
 10
-390.3070962538563
 20
254.5555513113234
 30
0.0
  0
SPLINE
  5
1F4F
330
A
100
AcDbEntity
  8
0
370
    13
100
AcDbSpline
210
0.0
220
0.0
230
1.0
 70
     8
 71
     3
 72
     8
 73
     4
 74
     0
 42
0.0000000001
 43
0.0000000001
 40
1.0
 40
1.0
 40
1.0
 40
1.0
 40
2.0
 40
2.0
 40
2.0
 40
2.0
 10
-390.3070962538563
 20
254.5555513113234
 30
0.0
 10
-390.292403688535
 20
254.6033875705089
 30
0.0
 10
-390.2855699372228
 20
254.6529322675223
 30
0.0
 10
-390.2855699372228
 20
254.7024769645357
 30
0.0
  0
SPLINE
  5
1F52
330
A
100
AcDbEntity
  8
0
370
    13
100
AcDbSpline
210
0.0
220
0.0
230
1.0
 70
     8
 71
     3
 72
     8
 73
     4
 74
     0
 42
0.0000000001
 43
0.0000000001
 40
0.0
 40
0.0
 40
0.0
 40
0.0
 40
1.0
 40
1.0
 40
1.0
 40
1.0
 10
-383.3503374180331
 20
235.6492949309813
 30
0.0
 10
-383.1374660646578
 20
235.4371069527374
 30
0.0
 10
-382.8415646328394
 20
235.3308421198326
 30
0.0
 10
-382.5425880129305
 20
235.3602272504751
 30
0.0
  0
SPLINE
  5
1F53
330
A
100
AcDbEntity
  8
0
370
    13
100
AcDbSpline
210
0.0
220
0.0
230
1.0
 70
     8
 71
     3
 72
     8
 73
     4
 74
     0
 42
0.0000000001
 43
0.0000000001
 40
1.0
 40
1.0
 40
1.0
 40
1.0
 40
2.0
 40
2.0
 40
2.0
 40
2.0
 10
-382.5425880129305
 20
235.3602272504751
 30
0.0
 10
-381.9917876571669
 20
235.4142138858414
 30
0.0
 10
-381.5882546421813
 20
235.9048772300577
 30
0.0
 10
-381.641899589982
 20
236.4560192733869
 30
0.0
  0
LINE
  5
1F54
330
A
100
AcDbEntity
  8
0
370
    13
100
AcDbLine
 10
-393.0669067212896
 20
245.687392233477
 30
0.0
 11
-393.0669067212896
 21
252.0810499611746
 31
0.0
  0
LINE
  5
1F56
330
A
100
AcDbEntity
  8
0
370
    13
100
AcDbLine
 10
-424.0798369263316
 20
251.4759212824789
 30
0.0
 11
-424.011157725644
 21
250.5236380371233
 31
0.0
  0
LINE
  5
1F58
330
A
100
AcDbEntity
  8
0
370
    13
100
AcDbLine
 10
-395.1033646123263
 20
176.6087160547017
 30
0.0
 11
-395.1033646123263
 21
254.0607877163199
 31
0.0
  0
LINE
  5
1F5A
330
A
100
AcDbEntity
  8
0
370
    13
100
AcDbLine
 10
-382.2487367065058
 20
263.1069660158493
 30
0.0
 11
-371.8417812759394
 21
158.6866690892888
 31
0.0
  0
LINE
  5
1F5C
330
A
100
AcDbEntity
  8
0
370
    13
100
AcDbLine
 10
-383.6523892260325
 20
257.6717419096884
 30
0.0
 11
-381.641899589982
 21
236.4560192733869
 31
0.0
  0
LINE
  5
1F5D
330
A
100
AcDbEntity
  8
0
370
    13
100
AcDbLine
 10
-441.8320502773497
 20
158.6593304100237
 30
0.0
 11
-431.4254362118192
 21
263.0796305265497
 31
0.0
  0
LINE
  5
1F5E
330
A
100
AcDbEntity
  8
0
370
    13
100
AcDbLine
 10
-431.7001530145697
 20
239.9586585084567
 30
0.0
 11
-429.3876115705201
 21
263.4250771394323
 31
0.0
  0
LINE
  5
1F5F
330
A
100
AcDbEntity
  8
0
370
    13
100
AcDbLine
 10
-426.3795231530383
 20
256.0663887859825
 30
0.0
 11
-425.5635732463612
 21
243.754360734351
 31
0.0
  0
LINE
  5
1F60
330
A
100
AcDbEntity
  8
0
370
    13
100
AcDbLine
 10
-422.7503023240665
 20
201.4143262103764
 30
0.0
 11
-422.7503023240665
 21
191.6743413530571
 31
0.0
  0
LINE
  5
1F61
330
A
100
AcDbEntity
  8
0
370
    13
100
AcDbLine
 10
-420.7466747238044
 20
201.4135667464299
 30
0.0
 11
-420.7466747238044
 21
177.6112273722019
 31
0.0
  0
LINE
  5
1F62
330
A
100
AcDbEntity
  8
0
370
    13
100
AcDbLine
 10
-379.5063523049186
 20
215.0981546097916
 30
0.0
 11
-375.5612276723835
 21
175.6334016697807
 31
0.0
  0
LINE
  5
1F63
330
A
100
AcDbEntity
  8
0
370
    13
100
AcDbLine
 10
-393.052555843534
 20
190.8842844732252
 30
0.0
 11
-393.052555843534
 21
212.4613516659779
 31
0.0
  0
LINE
  5
1F64
330
A
100
AcDbEntity
  8
0
370
    13
100
AcDbLine
 10
-434.1264481334918
 20
214.8607569798338
 30
0.0
 11
-437.7315936382448
 21
179.0008078570101
 31
0.0
  0
LINE
  5
1F65
330
A
100
AcDbEntity
  8
0
370
    13
100
AcDbLine
 10
-438.3036069075521
 20
173.4800866313053
 30
0.0
 11
-439.3216647128103
 21
163.2858410760971
 31
0.0
  0
LINE
  5
1F66
330
A
100
AcDbEntity
  8
0
370
    13
100
AcDbLine
 10
-422.7762988635288
 20
186.8161523170705
 30
0.0
 11
-422.7762988635288
 21
163.0884637688003
 31
0.0
  0
LINE
  5
1F69
330
A
100
AcDbEntity
  8
0
370
    13
100
AcDbLine
 10
-407.3865035451748
 20
157.5967401439163
 30
0.0
 11
-422.5829037013935
 21
157.5967401439163
 31
0.0
  0
LINE
  5
1F6A
330
A
100
AcDbEntity
  8
0
370
    13
100
AcDbLine
 10
-422.5829037013935
 20
157.5967401439163
 30
0.0
 11
-422.5829037013935
 21
158.5490233892719
 31
0.0
  0
LINE
  5
1F6B
330
A
100
AcDbEntity
  8
0
370
    13
100
AcDbLine
 10
-436.7311607306139
 20
158.5490233892719
 30
0.0
 11
-436.7311607306139
 21
157.5967401439163
 31
0.0
  0
ARC
  5
1F6C
330
A
100
AcDbEntity
  8
0
370
    13
100
AcDbCircle
 10
-440.8451067487789
 20
158.5885488382985
 30
0.0
 40
0.9918086943821661
100
AcDbArc
 50
174.322590918814
 51
270.0
  0
LINE
  5
1F6D
330
A
100
AcDbEntity
  8
0
370
    13
100
AcDbLine
 10
-436.7311607306139
 20
157.5967401439163
 30
0.0
 11
-440.8451067487789
 21
157.5967401439163
 31
0.0
  0
ARC
  5
1F6E
330
A
100
AcDbEntity
  8
0
370
    13
100
AcDbCircle
 10
-437.3478916398426
 20
163.0884637688003
 30
0.0
 40
1.983617388764332
100
AcDbArc
 50
174.2894068625003
 51
270.0
  0
LINE
  5
1F6F
330
A
100
AcDbEntity
  8
0
370
    13
100
AcDbLine
 10
-422.5829037013935
 20
158.5490233892719
 30
0.0
 11
-436.7311607306139
 21
158.5490233892719
 31
0.0
  0
LINE
  5
1F70
330
A
100
AcDbEntity
  8
0
370
    13
100
AcDbLine
 10
-437.3376410128742
 20
161.104846380036
 30
0.0
 11
-424.7599162522932
 21
161.104846380036
 31
0.0
  0
ARC
  5
1F71
330
A
100
AcDbEntity
  8
0
370
    13
100
AcDbCircle
 10
-424.7599162522932
 20
163.0884637688003
 30
0.0
 40
1.983617388764332
100
AcDbArc
 50
270.0000000000002
 51
0.0
  0
LINE
  5
1F72
330
A
100
AcDbEntity
  8
0
370
    13
100
AcDbLine
 10
-376.8743329870235
 20
157.5967401439163
 30
0.0
 11
-376.8743329870235
 21
158.5490233892719
 31
0.0
  0
LINE
  5
1F73
330
A
100
AcDbEntity
  8
0
370
    13
100
AcDbLine
 10
-391.0902441542348
 20
158.5490233892719
 30
0.0
 11
-391.0902441542348
 21
157.5967401439163
 31
0.0
  0
ARC
  5
1F74
330
A
100
AcDbEntity
  8
0
370
    13
100
AcDbCircle
 10
-372.8287244873744
 20
158.5885488382985
 30
0.0
 40
0.9918086943821661
100
AcDbArc
 50
270.0
 51
5.677594270695615
  0
LINE
  5
1F75
330
A
100
AcDbEntity
  8
0
370
    13
100
AcDbLine
 10
-391.0902441542348
 20
157.5967401439163
 30
0.0
 11
-406.2873276909788
 21
157.5967401439164
 31
0.0
  0
LINE
  5
1F78
330
A
100
AcDbEntity
  8
0
370
    13
100
AcDbLine
 10
-372.8287244873744
 20
157.5967401439163
 30
0.0
 11
-376.8743329870235
 21
157.5967401439163
 31
0.0
  0
LINE
  5
1F79
330
A
100
AcDbEntity
  8
0
370
    13
100
AcDbLine
 10
-376.8743329870235
 20
158.5490233892719
 30
0.0
 11
-391.0902441542348
 21
158.5490233892719
 31
0.0
  0
ARC
  5
1F7A
330
A
100
AcDbEntity
  8
0
370
    13
100
AcDbCircle
 10
-391.0703386713771
 20
163.0603533903197
 30
0.0
 40
1.983617388764332
100
AcDbArc
 50
180.0226338208948
 51
269.9817789042938
  0
LINE
  5
1F7B
330
A
100
AcDbEntity
  8
0
370
    13
100
AcDbLine
 10
-416.7335542657128
 20
173.5967401638479
 30
0.0
 11
-407.4150285054916
 21
173.5967401638479
 31
0.0
  0
LINE
  5
1F7C
330
A
100
AcDbEntity
  8
0
370
    13
100
AcDbLine
 10
-436.0241808728908
 20
178.1923750767764
 30
0.0
 11
-422.8965446021478
 21
191.3193279723881
 31
0.0
  0
LINE
  5
1F7D
330
A
100
AcDbEntity
  8
0
370
    13
100
AcDbLine
 10
-424.487128504539
 20
187.524812328146
 30
0.0
 11
-438.1594147548645
 21
173.7852136273952
 31
0.0
  0
LINE
  5
1F7E
330
A
100
AcDbEntity
  8
0
370
    13
100
AcDbLine
 10
-377.2679570626062
 20
174.824968889547
 30
0.0
 11
-392.9056301903216
 21
190.5292710925562
 31
0.0
  0
LINE
  5
1F7F
330
A
100
AcDbEntity
  8
0
370
    13
100
AcDbLine
 10
-406.3256910109
 20
173.5967401638479
 30
0.0
 11
-398.1119236275239
 21
173.6001570395041
 31
0.0
  0
LINE
  5
1F80
330
A
100
AcDbEntity
  8
0
370
    13
100
AcDbLine
 10
-407.3158007178202
 20
173.5703887922728
 30
0.0
 11
-406.8369156180767
 21
173.2967401638479
 31
0.0
  0
LINE
  5
1F81
330
A
100
AcDbEntity
  8
0
370
    13
100
AcDbLine
 10
-406.8369156180767
 20
173.2967401638479
 30
0.0
 11
-406.4365025151309
 21
173.5632358410593
 31
0.0
  0
LINE
  5
1F84
330
A
100
AcDbEntity
  8
0
370
    13
100
AcDbLine
 10
-422.3750156858015
 20
225.4299789768785
 30
0.0
 11
-422.3109203991678
 21
224.473036347438
 31
0.0
  0
LINE
  5
1F85
330
A
100
AcDbEntity
  8
0
370
    13
100
AcDbLine
 10
-393.1021005405477
 20
240.9785958918031
 30
0.0
 11
-393.1021005405477
 21
219.8930562179991
 31
0.0
  0
LINE
  5
1F86
330
A
100
AcDbEntity
  8
0
370
    13
100
AcDbLine
 10
-424.0019321613724
 20
219.6132141017645
 30
0.0
 11
-425.2945362220757
 21
239.2704997513179
 31
0.0
  0
LINE
  5
1F87
330
A
100
AcDbEntity
  8
0
370
    13
100
AcDbLine
 10
-432.2502699952021
 20
234.5743458495716
 30
0.0
 11
-433.9237266515753
 21
217.2413480612843
 31
0.0
  0
LINE
  5
1F8B
330
A
100
AcDbEntity
  8
0
370
    13
100
AcDbLine
 10
-423.4989680647944
 20
212.4572514151906
 30
0.0
 11
-422.7503306085426
 21
201.4378274242624
 31
0.0
  0
LINE
  5
1F8C
330
A
100
AcDbEntity
  8
0
370
    13
100
AcDbLine
 10
-421.0141320107904
 20
205.4322855908354
 30
0.0
 11
-420.9510038880392
 21
204.4754298825369
 31
0.0
  0
LINE
  5
1F93
330
A
100
AcDbEntity
  8
0
370
    13
100
AcDbLine
 10
-420.8826663749173
 20
203.4551508116249
 30
0.0
 11
-420.8146705493608
 21
202.4348717407129
 31
0.0
  0
LINE
  5
1F9C
330
A
100
AcDbEntity
  8
0
370
    13
100
AcDbLine
 10
-421.4269746669343
 20
211.4817334153734
 30
0.0
 11
-421.3589788413778
 21
210.4607709693303
 31
0.0
  0
LINE
  5
1F9F
330
A
100
AcDbEntity
  8
0
370
    13
100
AcDbLine
 10
-421.2906413282558
 20
209.4404918984183
 30
0.0
 11
-421.2226455026994
 21
208.488892028194
 31
0.0
  0
LINE
  5
1FA7
330
A
100
AcDbEntity
  8
0
370
    13
100
AcDbLine
 10
-421.1546496771429
 20
207.468612957282
 30
0.0
 11
-421.0863121640209
 21
206.4473088236731
 31
0.0
  0
LINE
  5
1FAA
330
A
100
AcDbEntity
  8
0
370
    13
100
AcDbLine
 10
-423.8755077620968
 20
212.909987439624
 30
0.0
 11
-433.533648491634
 21
215.3585205347865
 31
0.0
  0
LINE
  5
1FAB
330
A
100
AcDbEntity
  8
0
370
    13
100
AcDbLine
 10
-428.1071792221931
 20
215.6128651235861
 30
0.0
 11
-427.5635543053073
 21
216.1568317280375
 31
0.0
  0
LINE
  5
1FAC
330
A
100
AcDbEntity
  8
0
370
    13
100
AcDbLine
 10
-433.5488953921009
 20
216.7059236459731
 30
0.0
 11
-428.584175063785
 21
215.4819987859575
 31
0.0
  0
LINE
  5
1FB0
330
A
100
AcDbEntity
  8
0
370
    13
100
AcDbLine
 10
-421.8349496202728
 20
217.4667328146014
 30
0.0
 11
-421.7669537947164
 21
216.4464537436894
 31
0.0
  0
LINE
  5
1FBF
330
A
100
AcDbEntity
  8
0
370
    13
100
AcDbLine
 10
-421.6944658147255
 20
215.4318926386834
 30
0.0
 11
-421.6306204560379
 21
214.4738914274219
 31
0.0
  0
LINE
  5
1FC6
330
A
100
AcDbEntity
  8
0
370
    13
100
AcDbLine
 10
-421.5626246304815
 20
213.4536123565098
 30
0.0
 11
-421.4949704924907
 21
212.5013291111542
 31
0.0
  0
LINE
  5
1FCA
330
A
100
AcDbEntity
  8
0
370
    13
100
AcDbLine
 10
-422.2429245736113
 20
223.452757276526
 30
0.0
 11
-422.1749287480549
 21
222.5004740311705
 31
0.0
  0
LINE
  5
1FDA
330
A
100
AcDbEntity
  8
0
370
    13
100
AcDbLine
 10
-422.1072746100641
 20
221.4801949602585
 30
0.0
 11
-422.0392787845076
 21
220.4599158893464
 31
0.0
  0
LINE
  5
1FDE
330
A
100
AcDbEntity
  8
0
370
    13
100
AcDbLine
 10
-421.9665196258845
 20
219.4457618938236
 30
0.0
 11
-421.9029454458293
 21
218.4870118855133
 31
0.0
  0
LINE
  5
1FDF
330
A
100
AcDbEntity
  8
0
370
    13
100
AcDbLine
 10
-424.8957868330086
 20
218.4774446336763
 30
0.0
 11
-424.1474910643224
 21
219.2257404023626
 31
0.0
  0
LINE
  5
1FE1
330
A
100
AcDbEntity
  8
0
370
    13
100
AcDbLine
 10
-389.3295281286452
 20
216.2602340204316
 30
0.0
 11
-388.7859032117594
 21
215.715584040849
 31
0.0
  0
LINE
  5
1FE2
330
A
100
AcDbEntity
  8
0
370
    13
100
AcDbLine
 10
-392.9551748873352
 20
219.5383845248958
 30
0.0
 11
-392.0028916419795
 21
218.5857595919745
 31
0.0
  0
LINE
  5
1FE4
330
A
100
AcDbEntity
  8
0
370
    13
100
AcDbLine
 10
-427.0039991128236
 20
239.912872374665
 30
0.0
 11
-432.1053944673835
 21
234.8794728456614
 31
0.0
  0
LINE
  5
1FE6
330
A
100
AcDbEntity
  8
0
370
    13
100
AcDbLine
 10
-422.7865494904971
 20
231.4786565051434
 30
0.0
 11
-422.7188953525063
 21
230.4583774342314
 31
0.0
  0
LINE
  5
1FEA
330
A
100
AcDbEntity
  8
0
370
    13
100
AcDbLine
 10
-422.6473187646679
 20
229.4424480931473
 30
0.0
 11
-422.5829037013935
 21
228.4861568055295
 31
0.0
  0
LINE
  5
1FFB
330
A
100
AcDbEntity
  8
0
370
    13
100
AcDbLine
 10
-422.5152495634026
 20
227.4658777346175
 30
0.0
 11
-422.4472537378463
 21
226.4449152885743
 31
0.0
  0
LINE
  5
2002
330
A
100
AcDbEntity
  8
0
370
    13
100
AcDbLine
 10
-423.0595578554197
 20
235.491776963235
 30
0.0
 11
-422.990878654732
 21
234.471497892323
 31
0.0
  0
LINE
  5
2006
330
A
100
AcDbEntity
  8
0
370
    13
100
AcDbLine
 10
-423.1952078189668
 20
237.4643392795025
 30
0.0
 11
-423.1275536809761
 21
236.5120560341469
 31
0.0
  0
LINE
  5
2014
330
A
100
AcDbEntity
  8
0
370
    13
100
AcDbLine
 10
-422.9232245167412
 20
233.4512188214109
 30
0.0
 11
-422.8552286911848
 21
232.4989355760554
 31
0.0
  0
LINE
  5
2018
330
A
100
AcDbEntity
  8
0
370
    13
100
AcDbLine
 10
-423.6711785978618
 20
245.4902385081199
 30
0.0
 11
-423.6031827723054
 21
244.4706428123391
 31
0.0
  0
LINE
  5
2019
330
A
100
AcDbEntity
  8
0
370
    13
100
AcDbLine
 10
-425.7076364888984
 20
243.3680170381149
 30
0.0
 11
-429.9930819367812
 21
239.1512507909197
 31
0.0
  0
LINE
  5
201B
330
A
100
AcDbEntity
  8
0
370
    13
100
AcDbLine
 10
-423.2751627093198
 20
244.1108458057516
 30
0.0
 11
-423.3059145902246
 21
243.8921657637612
 31
0.0
  0
LINE
  5
201C
330
A
100
AcDbEntity
  8
0
370
    13
100
AcDbLine
 10
-423.6031827723054
 20
244.4706428123391
 30
0.0
 11
-423.3988536080706
 21
244.3339677860951
 31
0.0
  0
LINE
  5
201E
330
A
100
AcDbEntity
  8
0
370
    13
100
AcDbLine
 10
-423.535186946749
 20
243.518017879418
 30
0.0
 11
-423.4675328087583
 21
242.497738808506
 31
0.0
  0
LINE
  5
201F
330
A
100
AcDbEntity
  8
0
370
    13
100
AcDbLine
 10
-423.3988536080706
 20
243.6540095305308
 30
0.0
 11
-423.535186946749
 21
243.518017879418
 31
0.0
  0
LINE
  5
2023
330
A
100
AcDbEntity
  8
0
370
    13
100
AcDbLine
 10
-423.3988536080706
 20
241.4774597375939
 30
0.0
 11
-423.3988536080706
 21
240.457180666682
 31
0.0
  0
LINE
  5
2024
330
A
100
AcDbEntity
  8
0
370
    13
100
AcDbLine
 10
-423.2632036445234
 20
241.6811055266977
 30
0.0
 11
-423.3988536080706
 21
241.4774597375939
 31
0.0
  0
LINE
  5
2025
330
A
100
AcDbEntity
  8
0
370
    13
100
AcDbLine
 10
-423.1398544333382
 20
242.138283489484
 30
0.0
 11
-423.1699229391118
 21
241.9189200723623
 31
0.0
  0
LINE
  5
202B
330
A
100
AcDbEntity
  8
0
370
    13
100
AcDbLine
 10
-423.4675328087583
 20
242.497738808506
 30
0.0
 11
-423.2632036445234
 21
242.3614054698274
 31
0.0
  0
LINE
  5
202E
330
A
100
AcDbEntity
  8
0
370
    13
100
AcDbLine
 10
-423.3269868497101
 20
239.4416869468354
 30
0.0
 11
-423.2632036445234
 21
238.4846183504144
 31
0.0
  0
LINE
  5
2034
330
A
100
AcDbEntity
  8
0
370
    13
100
AcDbLine
 10
-423.6838210377895
 20
250.0958452049794
 30
0.0
 11
-423.714231231129
 21
249.87784853812
 31
0.0
  0
LINE
  5
2035
330
A
100
AcDbEntity
  8
0
370
    13
100
AcDbLine
 10
-424.011157725644
 20
250.5236380371233
 30
0.0
 11
-423.8075119365404
 21
250.3199922480197
 31
0.0
  0
LINE
  5
2038
330
A
100
AcDbEntity
  8
0
370
    13
100
AcDbLine
 10
-423.4121794231294
 20
246.1507205724445
 30
0.0
 11
-423.442247928903
 21
245.9323822180195
 31
0.0
  0
LINE
  5
2039
330
A
100
AcDbEntity
  8
0
370
    13
100
AcDbLine
 10
-423.7398577985495
 20
246.5105175790319
 30
0.0
 11
-423.535186946749
 21
246.374525927919
 31
0.0
  0
LINE
  5
203A
330
A
100
AcDbEntity
  8
0
370
    13
100
AcDbLine
 10
-423.8075119365404
 20
247.4628008243874
 30
0.0
 11
-423.7398577985495
 21
246.5105175790319
 31
0.0
  0
LINE
  5
203B
330
A
100
AcDbEntity
  8
0
370
    13
100
AcDbLine
 10
-423.6711785978618
 20
247.6671299886223
 30
0.0
 11
-423.8075119365404
 21
247.4628008243874
 31
0.0
  0
LINE
  5
203C
330
A
100
AcDbEntity
  8
0
370
    13
100
AcDbLine
 10
-423.547487699111
 20
248.1239662638431
 30
0.0
 11
-423.5782395800158
 21
247.9049445342869
 31
0.0
  0
LINE
  5
203D
330
A
100
AcDbEntity
  8
0
370
    13
100
AcDbLine
 10
-423.8755077620968
 20
248.4830798952994
 30
0.0
 11
-423.6711785978618
 21
248.3474299317521
 31
0.0
  0
LINE
  5
203E
330
A
100
AcDbEntity
  8
0
370
    13
100
AcDbLine
 10
-423.9435035876532
 20
249.5033589662114
 30
0.0
 11
-423.8755077620968
 21
248.4830798952994
 31
0.0
  0
LINE
  5
203F
330
A
100
AcDbEntity
  8
0
370
    13
100
AcDbLine
 10
-423.8075119365404
 20
249.6396923048898
 30
0.0
 11
-423.9435035876532
 21
249.5033589662114
 31
0.0
  0
LINE
  5
204A
330
A
100
AcDbEntity
  8
0
370
    13
100
AcDbLine
 10
-423.535186946749
 20
245.6945676723548
 30
0.0
 11
-423.6711785978618
 21
245.4902385081199
 31
0.0
  0
LINE
  5
204C
330
A
100
AcDbEntity
  8
0
370
    13
100
AcDbLine
 10
-381.3914426043899
 20
231.6214819075684
 30
0.0
 11
-391.3905875244062
 21
241.6875975904442
 31
0.0
  0
LINE
  5
204E
330
A
100
AcDbEntity
  8
0
370
    13
100
AcDbLine
 10
-426.1197116930244
 20
265.8397831655995
 30
0.0
 11
-426.3819149659976
 21
256.162402991919
 31
0.0
  0
LINE
  5
204F
330
A
100
AcDbEntity
  8
0
370
    13
100
AcDbLine
 10
-425.3720992994693
 20
267.5960572528357
 30
0.0
 11
-425.3720992994693
 21
251.5439171080354
 31
0.0
  0
LINE
  5
2051
330
A
100
AcDbEntity
  8
0
370
    13
100
AcDbLine
 10
-425.3720992994693
 20
251.5439171080354
 30
0.0
 11
-424.0344684741627
 21
251.5439171080354
 31
0.0
  0
LINE
  5
2056
330
A
100
AcDbEntity
  8
0
370
    13
100
AcDbLine
 10
-424.0344684741627
 20
251.5439171080354
 30
0.0
 11
-424.0798369263316
 21
251.4759212824789
 31
0.0
  0
LINE
  5
2066
330
A
100
AcDbEntity
  8
0
370
    13
100
AcDbLine
 10
-390.3429734482454
 20
263.6512743078663
 30
0.0
 11
-390.3429734482454
 21
267.2957133986162
 31
0.0
  0
LINE
  5
2067
330
A
100
AcDbEntity
  8
0
370
    13
100
AcDbLine
 10
-389.3220110022022
 20
264.6038992407874
 30
0.0
 11
-389.3220110022022
 21
263.6512743078663
 31
0.0
  0
LINE
  5
206A
330
A
100
AcDbEntity
  8
0
370
    13
100
AcDbLine
 10
-387.5032080904592
 20
258.1241362465561
 30
0.0
 11
-384.1519364469546
 21
258.1237945589906
 31
0.0
  0
LINE
  5
206B
330
A
100
AcDbEntity
  8
0
370
    13
100
AcDbLine
 10
-389.3220110022022
 20
259.9104788395661
 30
0.0
 11
-384.9009155907721
 21
259.9104788395661
 31
0.0
  0
LINE
  5
206C
330
A
100
AcDbEntity
  8
0
370
    13
100
AcDbLine
 10
-390.3429734482454
 20
254.6730918338933
 30
0.0
 11
-390.3429734482454
 21
261.3387328638166
 31
0.0
  0
LINE
  5
2070
330
A
100
AcDbEntity
  8
0
370
    13
100
AcDbLine
 10
-393.8111022391887
 20
255.0810667872319
 30
0.0
 11
-390.9545941906876
 21
254.1967793674327
 31
0.0
  0
LINE
  5
2071
330
A
100
AcDbEntity
  8
0
370
    13
100
AcDbLine
 10
-392.418725409327
 20
252.5604376157255
 30
0.0
 11
-389.1539007199218
 21
251.5401585448136
 31
0.0
  0
LINE
  5
2073
330
A
100
AcDbEntity
  8
0
370
    13
100
AcDbLine
 10
-388.506061095525
 20
252.0195461993647
 30
0.0
 11
-388.506061095525
 21
257.1216249290559
 31
0.0
  0
LINE
  5
2074
330
A
100
AcDbEntity
  8
0
370
    13
100
AcDbLine
 10
-389.3220110022022
 20
263.6512743078663
 30
0.0
 11
-390.3429734482454
 21
263.6512743078663
 31
0.0
  0
LINE
  5
2077
330
A
100
AcDbEntity
  8
0
370
    13
100
AcDbLine
 10
-390.3429734482454
 20
261.3387328638166
 30
0.0
 11
-389.3220110022022
 21
261.3387328638166
 31
0.0
  0
LINE
  5
2078
330
A
100
AcDbEntity
  8
0
370
    13
100
AcDbLine
 10
-389.3220110022022
 20
261.3387328638166
 30
0.0
 11
-389.3220110022022
 21
259.9104788395661
 31
0.0
  0
LINE
  5
207E
330
A
100
AcDbEntity
  8
0
370
    13
100
AcDbLine
 10
-383.9093382753715
 20
261.058890747582
 30
0.0
 11
-384.2547844042032
 21
263.0345282519399
 31
0.0
  0
LINE
  5
2081
330
A
100
AcDbEntity
  8
0
370
    13
100
AcDbLine
 10
-387.2308831006679
 20
265.6067522458533
 30
0.0
 11
-388.3191579971363
 21
265.6067522458533
 31
0.0
  0
SPLINE
  5
208C
102
{ACAD_REACTORS
330
20BC
102
}
330
A
100
AcDbEntity
  8
0
370
    13
100
AcDbSpline
210
0.0
220
0.0
230
1.0
 70
     8
 71
     3
 72
     8
 73
     4
 74
     0
 42
0.0000000001
 43
0.0000000001
 40
0.0
 40
0.0
 40
0.0
 40
0.0
 40
1.0
 40
1.0
 40
1.0
 40
1.0
 10
-424.0504517956892
 20
267.2957138826644
 30
0.0
 10
-424.0504517956892
 20
267.461774039551
 30
0.0
 10
-424.1854183841052
 20
267.5967406279669
 30
0.0
 10
-424.352161916123
 20
267.5967406279669
 30
0.0
  0
SPLINE
  5
208D
102
{ACAD_REACTORS
330
20BC
102
}
330
A
100
AcDbEntity
  8
0
370
    13
100
AcDbSpline
210
0.0
220
0.0
230
1.0
 70
     8
 71
     3
 72
     8
 73
     4
 74
     0
 42
0.0000000001
 43
0.0000000001
 40
0.0
 40
0.0
 40
0.0
 40
0.0
 40
1.0
 40
1.0
 40
1.0
 40
1.0
 10
-424.4577433738967
 20
259.3371271044722
 30
0.0
 10
-424.5325729507652
 20
259.2752816550968
 30
0.0
 10
-424.5732337710729
 20
259.1809758869883
 30
0.0
 10
-424.5667417073263
 20
259.0842783059207
 30
0.0
  0
SPLINE
  5
208E
102
{ACAD_REACTORS
330
20BC
102
}
330
A
100
AcDbEntity
  8
0
370
    13
100
AcDbSpline
210
0.0
220
0.0
230
1.0
 70
     8
 71
     3
 72
     8
 73
     4
 74
     0
 42
0.0000000001
 43
0.0000000001
 40
0.0
 40
0.0
 40
0.0
 40
0.0
 40
1.0
 40
1.0
 40
1.0
 40
1.0
 10
-423.7637759281425
 20
252.1278611576631
 30
0.0
 10
-423.7692429291922
 20
252.2166999247216
 30
0.0
 10
-423.8150290629839
 20
252.2987049404681
 30
0.0
 10
-423.8867834517622
 20
252.3509831380065
 30
0.0
  0
SPLINE
  5
208F
102
{ACAD_REACTORS
330
20BC
102
}
330
A
100
AcDbEntity
  8
0
370
    13
100
AcDbSpline
210
0.0
220
0.0
230
1.0
 70
     8
 71
     3
 72
     8
 73
     4
 74
     0
 42
0.0000000001
 43
0.0000000001
 40
0.0
 40
0.0
 40
0.0
 40
0.0
 40
1.0
 40
1.0
 40
1.0
 40
1.0
 10
-423.8567149459885
 20
251.685375760198
 30
0.0
 10
-423.7924776836538
 20
251.7472212095734
 30
0.0
 10
-423.7583089270928
 20
251.8346932263694
 30
0.0
 10
-423.7637759281425
 20
251.9235319934282
 30
0.0
  0
LINE
  5
20A5
102
{ACAD_REACTORS
330
20BC
102
}
330
A
100
AcDbEntity
  8
0
370
    13
100
AcDbLine
 10
-425.3720992994693
 20
267.5960572528357
 30
0.0
 11
-425.3720992994693
 21
251.5439171080354
 31
0.0
  0
LINE
  5
20A7
102
{ACAD_REACTORS
330
20BC
102
}
330
A
100
AcDbEntity
  8
0
370
    13
100
AcDbLine
 10
-424.5264225745842
 20
264.5751974852761
 30
0.0
 11
-424.0504517956892
 21
264.09854333125
 31
0.0
  0
LINE
  5
20A8
102
{ACAD_REACTORS
330
20BC
102
}
330
A
100
AcDbEntity
  8
0
370
    13
100
AcDbLine
 10
-424.5667417073263
 20
259.0842783059207
 30
0.0
 11
-424.0907709284313
 21
252.4866331015537
 31
0.0
  0
LINE
  5
20A9
102
{ACAD_REACTORS
330
20BC
102
}
330
A
100
AcDbEntity
  8
0
370
    13
100
AcDbLine
 10
-423.8567149459885
 20
251.685375760198
 30
0.0
 11
-424.0114994132096
 21
251.5439171080354
 31
0.0
  0
LINE
  5
20AB
102
{ACAD_REACTORS
330
20BC
102
}
330
A
100
AcDbEntity
  8
0
370
    13
100
AcDbLine
 10
-424.0907709284313
 20
252.4866331015537
 30
0.0
 11
-423.8867834517621
 21
252.3509831380065
 31
0.0
  0
LINE
  5
20AC
102
{ACAD_REACTORS
330
20BC
102
}
330
A
100
AcDbEntity
  8
0
370
    13
100
AcDbLine
 10
-423.7637759281425
 20
252.1278611576631
 30
0.0
 11
-423.7637759281425
 21
251.9235319934282
 31
0.0
  0
LINE
  5
20AD
102
{ACAD_REACTORS
330
20BC
102
}
330
A
100
AcDbEntity
  8
0
370
    13
100
AcDbLine
 10
-425.3720992994693
 20
251.5439171080354
 30
0.0
 11
-424.0114994132096
 21
251.5439171080354
 31
0.0
  0
LINE
  5
20AE
102
{ACAD_REACTORS
330
20BC
102
}
330
A
100
AcDbEntity
  8
0
370
    13
100
AcDbLine
 10
-424.5264225745842
 20
262.602293481443
 30
0.0
 11
-424.0504517956892
 21
262.0579851894261
 31
0.0
  0
LINE
  5
20AF
102
{ACAD_REACTORS
330
20BC
102
}
330
A
100
AcDbEntity
  8
0
370
    13
100
AcDbLine
 10
-423.8461226314544
 20
259.8137812584984
 30
0.0
 11
-424.4577433738966
 21
259.3371271044722
 31
0.0
  0
LINE
  5
20B0
102
{ACAD_REACTORS
330
20BC
102
}
330
A
100
AcDbEntity
  8
0
370
    13
100
AcDbLine
 10
-424.5264225745842
 20
260.5617353396191
 30
0.0
 11
-423.8461226314544
 21
259.8137812584984
 31
0.0
  0
LINE
  5
20B1
102
{ACAD_REACTORS
330
20BC
102
}
330
A
100
AcDbEntity
  8
0
370
    13
100
AcDbLine
 10
-424.0504517956892
 20
261.1063853192017
 30
0.0
 11
-424.5264225745842
 21
260.5617353396191
 31
0.0
  0
LINE
  5
20B2
102
{ACAD_REACTORS
330
20BC
102
}
330
A
100
AcDbEntity
  8
0
370
    13
100
AcDbLine
 10
-424.5264225745842
 20
261.5820144105311
 30
0.0
 11
-424.0504517956892
 21
261.1063853192017
 31
0.0
  0
LINE
  5
20B3
102
{ACAD_REACTORS
330
20BC
102
}
330
A
100
AcDbEntity
  8
0
370
    13
100
AcDbLine
 10
-424.0504517956892
 20
262.0579851894261
 30
0.0
 11
-424.5264225745842
 21
261.5820144105311
 31
0.0
  0
LINE
  5
20B4
102
{ACAD_REACTORS
330
20BC
102
}
330
A
100
AcDbEntity
  8
0
370
    13
100
AcDbLine
 10
-424.5264225745842
 20
263.5549184143643
 30
0.0
 11
-424.0504517956892
 21
263.078264260338
 31
0.0
  0
LINE
  5
20B5
102
{ACAD_REACTORS
330
20BC
102
}
330
A
100
AcDbEntity
  8
0
370
    13
100
AcDbLine
 10
-424.0504517956892
 20
263.078264260338
 30
0.0
 11
-424.5264225745842
 21
262.602293481443
 31
0.0
  0
LINE
  5
20B6
102
{ACAD_REACTORS
330
20BC
102
}
330
A
100
AcDbEntity
  8
0
370
    13
100
AcDbLine
 10
-424.0504517956892
 20
264.09854333125
 30
0.0
 11
-424.5264225745842
 21
263.5549184143643
 31
0.0
  0
LINE
  5
20B7
102
{ACAD_REACTORS
330
20BC
102
}
330
A
100
AcDbEntity
  8
0
370
    13
100
AcDbLine
 10
-424.0504517956892
 20
267.2957138826644
 30
0.0
 11
-424.0504517956892
 21
266.0711056475176
 31
0.0
  0
LINE
  5
20B8
102
{ACAD_REACTORS
330
20BC
102
}
330
A
100
AcDbEntity
  8
0
370
    13
100
AcDbLine
 10
-424.0504517956892
 20
265.0508265766056
 30
0.0
 11
-424.5264225745842
 21
264.5751974852761
 31
0.0
  0
LINE
  5
20B9
102
{ACAD_REACTORS
330
20BC
102
}
330
A
100
AcDbEntity
  8
0
370
    13
100
AcDbLine
 10
-424.5264225745842
 20
265.5954765561882
 30
0.0
 11
-424.0504517956892
 21
265.0508265766056
 31
0.0
  0
LINE
  5
20BA
102
{ACAD_REACTORS
330
20BC
102
}
330
A
100
AcDbEntity
  8
0
370
    13
100
AcDbLine
 10
-424.0504517956892
 20
266.0711056475176
 30
0.0
 11
-424.5264225745842
 21
265.5954765561882
 31
0.0
  0
LINE
  5
20BB
102
{ACAD_REACTORS
330
20BC
102
}
330
A
100
AcDbEntity
  8
0
370
    13
100
AcDbLine
 10
-425.3720992994693
 20
267.5960572528357
 30
0.0
 11
-424.352161916123
 21
267.5967406279669
 31
0.0
  0
LINE
  5
217F
330
A
100
AcDbEntity
  8
0
370
    13
100
AcDbLine
 10
-425.3720992994693
 20
267.5960572528357
 30
0.0
 11
-426.4357726912185
 21
267.5967401439163
 31
0.0
  0
LINE
  5
2180
330
A
100
AcDbEntity
  8
0
370
    13
100
AcDbLine
 10
-390.0419467029453
 20
267.5967401439163
 30
0.0
 11
-387.238400227111
 21
267.5967401439163
 31
0.0
  0
SPLINE
  5
2186
330
A
100
AcDbEntity
  8
0
370
    13
100
AcDbSpline
210
0.0
220
0.0
230
1.0
 70
     8
 71
     3
 72
     8
 73
     4
 74
     0
 42
0.0000000001
 43
0.0000000001
 40
0.0
 40
0.0
 40
0.0
 40
0.0
 40
1.0
 40
1.0
 40
1.0
 40
1.0
 10
-423.1945244438357
 20
239.6405473848737
 30
0.0
 10
-423.1299454939353
 20
239.7020511466836
 30
0.0
 10
-423.0957767373743
 20
239.7895231634796
 30
0.0
 10
-423.1012437384241
 20
239.8783619305384
 30
0.0
  0
SPLINE
  5
2187
330
A
100
AcDbEntity
  8
0
370
    13
100
AcDbSpline
210
0.0
220
0.0
230
1.0
 70
     8
 71
     3
 72
     8
 73
     4
 74
     0
 42
0.0000000001
 43
0.0000000001
 40
0.0
 40
0.0
 40
0.0
 40
0.0
 40
1.0
 40
1.0
 40
1.0
 40
1.0
 10
-423.0711752326505
 20
240.0977253476601
 30
0.0
 10
-423.0763005461346
 20
240.1865641147186
 30
0.0
 10
-423.1217449923608
 20
240.2682274428996
 30
0.0
 10
-423.1945244438357
 20
240.3208473280035
 30
0.0
  0
LINE
  5
2188
330
A
100
AcDbEntity
  8
0
370
    13
100
AcDbLine
 10
-423.0711752326505
 20
240.0977253476601
 30
0.0
 11
-423.1012437384241
 21
239.8783619305384
 31
0.0
  0
LINE
  5
2189
330
A
100
AcDbEntity
  8
0
370
    13
100
AcDbLine
 10
-423.3988536080706
 20
240.457180666682
 30
0.0
 11
-423.1945244438357
 21
240.3208473280035
 31
0.0
  0
LINE
  5
218A
330
A
100
AcDbEntity
  8
0
370
    13
100
AcDbLine
 10
-423.1945244438357
 20
239.6405473848737
 30
0.0
 11
-423.3269868497101
 21
239.4416869468354
 31
0.0
  0
SPLINE
  5
218B
330
A
100
AcDbEntity
  8
0
370
    13
100
AcDbSpline
210
0.0
220
0.0
230
1.0
 70
     8
 71
     3
 72
     8
 73
     4
 74
     0
 42
0.0000000001
 43
0.0000000001
 40
0.0
 40
0.0
 40
0.0
 40
0.0
 40
1.0
 40
1.0
 40
1.0
 40
1.0
 10
-422.9355252691033
 20
238.1251630313925
 30
0.0
 10
-422.9406505825874
 20
238.214001798451
 30
0.0
 10
-422.9860950288136
 20
238.295665126632
 30
0.0
 10
-423.0588744802885
 20
238.3482850117359
 30
0.0
  0
SPLINE
  5
218C
330
A
100
AcDbEntity
  8
0
370
    13
100
AcDbSpline
210
0.0
220
0.0
230
1.0
 70
     8
 71
     3
 72
     8
 73
     4
 74
     0
 42
0.0000000001
 43
0.0000000001
 40
0.0
 40
0.0
 40
0.0
 40
0.0
 40
1.0
 40
1.0
 40
1.0
 40
1.0
 10
-423.0588744802885
 20
237.6679850686061
 30
0.0
 10
-422.9942955303881
 20
237.729488830416
 30
0.0
 10
-422.9601267738271
 20
237.816960847212
 30
0.0
 10
-422.9655937748769
 20
237.9057996142707
 30
0.0
  0
LINE
  5
218D
330
A
100
AcDbEntity
  8
0
370
    13
100
AcDbLine
 10
-423.0588744802885
 20
237.6679850686061
 30
0.0
 11
-423.1913368861629
 21
237.4691246305678
 31
0.0
  0
LINE
  5
218E
330
A
100
AcDbEntity
  8
0
370
    13
100
AcDbLine
 10
-423.2632036445234
 20
238.4846183504144
 30
0.0
 11
-423.0588744802885
 21
238.3482850117359
 31
0.0
  0
LINE
  5
218F
330
A
100
AcDbEntity
  8
0
370
    13
100
AcDbLine
 10
-422.9355252691033
 20
238.1251630313925
 30
0.0
 11
-422.9655937748769
 21
237.9057996142707
 31
0.0
  0
SPLINE
  5
2190
330
A
100
AcDbEntity
  8
0
370
    13
100
AcDbSpline
210
0.0
220
0.0
230
1.0
 70
     8
 71
     3
 72
     8
 73
     4
 74
     0
 42
0.0000000001
 43
0.0000000001
 40
0.0
 40
0.0
 40
0.0
 40
0.0
 40
1.0
 40
1.0
 40
1.0
 40
1.0
 10
-422.799875305556
 20
236.152600715125
 30
0.0
 10
-422.8050006190401
 20
236.2414394821835
 30
0.0
 10
-422.8504450652663
 20
236.3231028103645
 30
0.0
 10
-422.9232245167412
 20
236.3757226954684
 30
0.0
  0
SPLINE
  5
2191
330
A
100
AcDbEntity
  8
0
370
    13
100
AcDbSpline
210
0.0
220
0.0
230
1.0
 70
     8
 71
     3
 72
     8
 73
     4
 74
     0
 42
0.0000000001
 43
0.0000000001
 40
0.0
 40
0.0
 40
0.0
 40
0.0
 40
1.0
 40
1.0
 40
1.0
 40
1.0
 10
-422.9232245167412
 20
235.6954227523386
 30
0.0
 10
-422.8586455668408
 20
235.7569265141485
 30
0.0
 10
-422.8244768102798
 20
235.8443985309445
 30
0.0
 10
-422.8299438113296
 20
235.9332372980032
 30
0.0
  0
LINE
  5
2192
330
A
100
AcDbEntity
  8
0
370
    13
100
AcDbLine
 10
-422.9232245167412
 20
235.6954227523386
 30
0.0
 11
-423.0556869226156
 21
235.4965623143003
 31
0.0
  0
LINE
  5
2193
330
A
100
AcDbEntity
  8
0
370
    13
100
AcDbLine
 10
-423.1275536809761
 20
236.5120560341469
 30
0.0
 11
-422.9232245167412
 21
236.3757226954684
 31
0.0
  0
LINE
  5
2194
330
A
100
AcDbEntity
  8
0
370
    13
100
AcDbLine
 10
-422.799875305556
 20
236.152600715125
 30
0.0
 11
-422.8299438113296
 21
235.9332372980032
 31
0.0
  0
SPLINE
  5
2195
330
A
100
AcDbEntity
  8
0
370
    13
100
AcDbSpline
210
0.0
220
0.0
230
1.0
 70
     8
 71
     3
 72
     8
 73
     4
 74
     0
 42
0.0000000001
 43
0.0000000001
 40
0.0
 40
0.0
 40
0.0
 40
0.0
 40
1.0
 40
1.0
 40
1.0
 40
1.0
 10
-422.6632002793119
 20
234.1120425733011
 30
0.0
 10
-422.6683255927961
 20
234.2008813403596
 30
0.0
 10
-422.7137700390223
 20
234.2825446685405
 30
0.0
 10
-422.7865494904971
 20
234.3351645536445
 30
0.0
  0
SPLINE
  5
2196
330
A
100
AcDbEntity
  8
0
370
    13
100
AcDbSpline
210
0.0
220
0.0
230
1.0
 70
     8
 71
     3
 72
     8
 73
     4
 74
     0
 42
0.0000000001
 43
0.0000000001
 40
0.0
 40
0.0
 40
0.0
 40
0.0
 40
1.0
 40
1.0
 40
1.0
 40
1.0
 10
-422.7865494904971
 20
233.6548646105147
 30
0.0
 10
-422.7219705405968
 20
233.7163683723246
 30
0.0
 10
-422.6878017840357
 20
233.8038403891206
 30
0.0
 10
-422.6932687850855
 20
233.8926791561793
 30
0.0
  0
LINE
  5
2197
330
A
100
AcDbEntity
  8
0
370
    13
100
AcDbLine
 10
-422.7865494904971
 20
233.6548646105147
 30
0.0
 11
-422.9190118963716
 21
233.4560041724764
 31
0.0
  0
LINE
  5
2198
330
A
100
AcDbEntity
  8
0
370
    13
100
AcDbLine
 10
-422.990878654732
 20
234.471497892323
 30
0.0
 11
-422.7865494904971
 21
234.3351645536445
 31
0.0
  0
LINE
  5
2199
330
A
100
AcDbEntity
  8
0
370
    13
100
AcDbLine
 10
-422.6632002793119
 20
234.1120425733011
 30
0.0
 11
-422.6932687850855
 21
233.8926791561793
 31
0.0
  0
SPLINE
  5
219A
330
A
100
AcDbEntity
  8
0
370
    13
100
AcDbSpline
210
0.0
220
0.0
230
1.0
 70
     8
 71
     3
 72
     8
 73
     4
 74
     0
 42
0.0000000001
 43
0.0000000001
 40
0.0
 40
0.0
 40
0.0
 40
0.0
 40
1.0
 40
1.0
 40
1.0
 40
1.0
 10
-422.5275503157647
 20
232.1394802570335
 30
0.0
 10
-422.5326756292488
 20
232.2283190240921
 30
0.0
 10
-422.5781200754751
 20
232.309982352273
 30
0.0
 10
-422.6508995269499
 20
232.3626022373769
 30
0.0
  0
SPLINE
  5
219B
330
A
100
AcDbEntity
  8
0
370
    13
100
AcDbSpline
210
0.0
220
0.0
230
1.0
 70
     8
 71
     3
 72
     8
 73
     4
 74
     0
 42
0.0000000001
 43
0.0000000001
 40
0.0
 40
0.0
 40
0.0
 40
0.0
 40
1.0
 40
1.0
 40
1.0
 40
1.0
 10
-422.6508995269499
 20
231.6823022942471
 30
0.0
 10
-422.5863205770496
 20
231.743806056057
 30
0.0
 10
-422.5521518204884
 20
231.831278072853
 30
0.0
 10
-422.5576188215383
 20
231.9201168399118
 30
0.0
  0
LINE
  5
219C
330
A
100
AcDbEntity
  8
0
370
    13
100
AcDbLine
 10
-422.6508995269499
 20
231.6823022942471
 30
0.0
 11
-422.7833619328244
 21
231.4834418562088
 31
0.0
  0
LINE
  5
219D
330
A
100
AcDbEntity
  8
0
370
    13
100
AcDbLine
 10
-422.8552286911848
 20
232.4989355760554
 30
0.0
 11
-422.6508995269499
 21
232.3626022373769
 31
0.0
  0
LINE
  5
219E
330
A
100
AcDbEntity
  8
0
370
    13
100
AcDbLine
 10
-422.5275503157647
 20
232.1394802570335
 30
0.0
 11
-422.5576188215383
 21
231.9201168399118
 31
0.0
  0
SPLINE
  5
219F
330
A
100
AcDbEntity
  8
0
370
    13
100
AcDbSpline
210
0.0
220
0.0
230
1.0
 70
     8
 71
     3
 72
     8
 73
     4
 74
     0
 42
0.0000000001
 43
0.0000000001
 40
0.0
 40
0.0
 40
0.0
 40
0.0
 40
1.0
 40
1.0
 40
1.0
 40
1.0
 10
-422.3912169770862
 20
230.0989221152094
 30
0.0
 10
-422.3963422905703
 20
230.187760882268
 30
0.0
 10
-422.4417867367965
 20
230.2694242104489
 30
0.0
 10
-422.5145661882715
 20
230.3220440955529
 30
0.0
  0
SPLINE
  5
21A0
330
A
100
AcDbEntity
  8
0
370
    13
100
AcDbSpline
210
0.0
220
0.0
230
1.0
 70
     8
 71
     3
 72
     8
 73
     4
 74
     0
 42
0.0000000001
 43
0.0000000001
 40
0.0
 40
0.0
 40
0.0
 40
0.0
 40
1.0
 40
1.0
 40
1.0
 40
1.0
 10
-422.5145661882715
 20
229.641744152423
 30
0.0
 10
-422.4499872383711
 20
229.7032479142329
 30
0.0
 10
-422.41581848181
 20
229.7907199310289
 30
0.0
 10
-422.4212854828598
 20
229.8795586980877
 30
0.0
  0
LINE
  5
21A1
330
A
100
AcDbEntity
  8
0
370
    13
100
AcDbLine
 10
-422.5145661882715
 20
229.641744152423
 30
0.0
 11
-422.6473187646679
 21
229.4424480931474
 31
0.0
  0
LINE
  5
21A2
330
A
100
AcDbEntity
  8
0
370
    13
100
AcDbLine
 10
-422.7188953525063
 20
230.4583774342314
 30
0.0
 11
-422.5145661882715
 21
230.3220440955529
 31
0.0
  0
LINE
  5
21A3
330
A
100
AcDbEntity
  8
0
370
    13
100
AcDbLine
 10
-422.3912169770862
 20
230.0989221152094
 30
0.0
 11
-422.4212854828598
 21
229.8795586980877
 31
0.0
  0
SPLINE
  5
21A4
330
A
100
AcDbEntity
  8
0
370
    13
100
AcDbSpline
210
0.0
220
0.0
230
1.0
 70
     8
 71
     3
 72
     8
 73
     4
 74
     0
 42
0.0000000001
 43
0.0000000001
 40
0.0
 40
0.0
 40
0.0
 40
0.0
 40
1.0
 40
1.0
 40
1.0
 40
1.0
 10
-422.2552253259734
 20
228.1267014865075
 30
0.0
 10
-422.2603506394575
 20
228.2155402535661
 30
0.0
 10
-422.3057950856837
 20
228.297203581747
 30
0.0
 10
-422.3785745371586
 20
228.3498234668509
 30
0.0
  0
SPLINE
  5
21A5
330
A
100
AcDbEntity
  8
0
370
    13
100
AcDbSpline
210
0.0
220
0.0
230
1.0
 70
     8
 71
     3
 72
     8
 73
     4
 74
     0
 42
0.0000000001
 43
0.0000000001
 40
0.0
 40
0.0
 40
0.0
 40
0.0
 40
1.0
 40
1.0
 40
1.0
 40
1.0
 10
-422.3785745371586
 20
227.6695235237212
 30
0.0
 10
-422.3139955872582
 20
227.731027285531
 30
0.0
 10
-422.2798268306972
 20
227.8184993023271
 30
0.0
 10
-422.285293831747
 20
227.9073380693858
 30
0.0
  0
LINE
  5
21A6
330
A
100
AcDbEntity
  8
0
370
    13
100
AcDbLine
 10
-422.3785745371586
 20
227.6695235237212
 30
0.0
 11
-422.511036943033
 21
227.4706630856828
 31
0.0
  0
LINE
  5
21A7
330
A
100
AcDbEntity
  8
0
370
    13
100
AcDbLine
 10
-422.5829037013935
 20
228.4861568055295
 30
0.0
 11
-422.3785745371586
 21
228.3498234668509
 31
0.0
  0
LINE
  5
21A8
330
A
100
AcDbEntity
  8
0
370
    13
100
AcDbLine
 10
-422.2552253259734
 20
228.1267014865075
 30
0.0
 11
-422.285293831747
 21
227.9073380693858
 31
0.0
  0
SPLINE
  5
21A9
330
A
100
AcDbEntity
  8
0
370
    13
100
AcDbSpline
210
0.0
220
0.0
230
1.0
 70
     8
 71
     3
 72
     8
 73
     4
 74
     0
 42
0.0000000001
 43
0.0000000001
 40
0.0
 40
0.0
 40
0.0
 40
0.0
 40
1.0
 40
1.0
 40
1.0
 40
1.0
 10
-422.1195753624262
 20
226.0854599695524
 30
0.0
 10
-422.1247006759102
 20
226.1742987366109
 30
0.0
 10
-422.1701451221364
 20
226.2559620647919
 30
0.0
 10
-422.2429245736114
 20
226.3085819498958
 30
0.0
  0
SPLINE
  5
21AA
330
A
100
AcDbEntity
  8
0
370
    13
100
AcDbSpline
210
0.0
220
0.0
230
1.0
 70
     8
 71
     3
 72
     8
 73
     4
 74
     0
 42
0.0000000001
 43
0.0000000001
 40
0.0
 40
0.0
 40
0.0
 40
0.0
 40
1.0
 40
1.0
 40
1.0
 40
1.0
 10
-422.2429245736114
 20
225.628282006766
 30
0.0
 10
-422.178345623711
 20
225.6897857685759
 30
0.0
 10
-422.1441768671499
 20
225.7772577853719
 30
0.0
 10
-422.1496438681998
 20
225.8660965524307
 30
0.0
  0
LINE
  5
21AB
330
A
100
AcDbEntity
  8
0
370
    13
100
AcDbLine
 10
-422.2429245736114
 20
225.628282006766
 30
0.0
 11
-422.3750156858015
 21
225.4299789768785
 31
0.0
  0
LINE
  5
21AC
330
A
100
AcDbEntity
  8
0
370
    13
100
AcDbLine
 10
-422.4472537378463
 20
226.4449152885743
 30
0.0
 11
-422.2429245736114
 21
226.3085819498958
 31
0.0
  0
LINE
  5
21AD
330
A
100
AcDbEntity
  8
0
370
    13
100
AcDbLine
 10
-422.1195753624262
 20
226.0854599695524
 30
0.0
 11
-422.1496438681998
 21
225.8660965524307
 31
0.0
  0
SPLINE
  5
21AE
330
A
100
AcDbEntity
  8
0
370
    13
100
AcDbSpline
210
0.0
220
0.0
230
1.0
 70
     8
 71
     3
 72
     8
 73
     4
 74
     0
 42
0.0000000001
 43
0.0000000001
 40
0.0
 40
0.0
 40
0.0
 40
0.0
 40
1.0
 40
1.0
 40
1.0
 40
1.0
 10
-421.9832420237477
 20
224.113581028416
 30
0.0
 10
-421.9883673372319
 20
224.2024197954746
 30
0.0
 10
-422.0338117834581
 20
224.2840831236555
 30
0.0
 10
-422.1065912349329
 20
224.3367030087595
 30
0.0
  0
SPLINE
  5
21AF
330
A
100
AcDbEntity
  8
0
370
    13
100
AcDbSpline
210
0.0
220
0.0
230
1.0
 70
     8
 71
     3
 72
     8
 73
     4
 74
     0
 42
0.0000000001
 43
0.0000000001
 40
0.0
 40
0.0
 40
0.0
 40
0.0
 40
1.0
 40
1.0
 40
1.0
 40
1.0
 10
-422.1065912349329
 20
223.6564030656297
 30
0.0
 10
-422.0420122850326
 20
223.7179068274396
 30
0.0
 10
-422.0078435284715
 20
223.8053788442356
 30
0.0
 10
-422.0133105295214
 20
223.8942176112943
 30
0.0
  0
LINE
  5
21B0
330
A
100
AcDbEntity
  8
0
370
    13
100
AcDbLine
 10
-422.1065912349329
 20
223.6564030656297
 30
0.0
 11
-422.2390536408074
 21
223.4575426275914
 31
0.0
  0
LINE
  5
21B1
330
A
100
AcDbEntity
  8
0
370
    13
100
AcDbLine
 10
-422.3109203991678
 20
224.473036347438
 30
0.0
 11
-422.1065912349329
 21
224.3367030087595
 31
0.0
  0
LINE
  5
21B2
330
A
100
AcDbEntity
  8
0
370
    13
100
AcDbLine
 10
-421.9832420237477
 20
224.113581028416
 30
0.0
 11
-422.0133105295214
 21
223.8942176112943
 31
0.0
  0
SPLINE
  5
21B3
330
A
100
AcDbEntity
  8
0
370
    13
100
AcDbSpline
210
0.0
220
0.0
230
1.0
 70
     8
 71
     3
 72
     8
 73
     4
 74
     0
 42
0.0000000001
 43
0.0000000001
 40
0.0
 40
0.0
 40
0.0
 40
0.0
 40
1.0
 40
1.0
 40
1.0
 40
1.0
 10
-421.8472503726348
 20
222.1410187121485
 30
0.0
 10
-421.8523756861189
 20
222.2298574792071
 30
0.0
 10
-421.8978201323451
 20
222.3115208073881
 30
0.0
 10
-421.97059958382
 20
222.364140692492
 30
0.0
  0
SPLINE
  5
21B4
330
A
100
AcDbEntity
  8
0
370
    13
100
AcDbSpline
210
0.0
220
0.0
230
1.0
 70
     8
 71
     3
 72
     8
 73
     4
 74
     0
 42
0.0000000001
 43
0.0000000001
 40
0.0
 40
0.0
 40
0.0
 40
0.0
 40
1.0
 40
1.0
 40
1.0
 40
1.0
 10
-421.97059958382
 20
221.6838407493622
 30
0.0
 10
-421.9060206339197
 20
221.7453445111721
 30
0.0
 10
-421.8718518773585
 20
221.8328165279681
 30
0.0
 10
-421.8773188784084
 20
221.9216552950268
 30
0.0
  0
LINE
  5
21B5
330
A
100
AcDbEntity
  8
0
370
    13
100
AcDbLine
 10
-421.97059958382
 20
221.6838407493622
 30
0.0
 11
-422.1071813798129
 21
221.4787960379974
 31
0.0
  0
LINE
  5
21B6
330
A
100
AcDbEntity
  8
0
370
    13
100
AcDbLine
 10
-422.1749287480549
 20
222.5004740311705
 30
0.0
 11
-421.97059958382
 21
222.364140692492
 31
0.0
  0
LINE
  5
21B7
330
A
100
AcDbEntity
  8
0
370
    13
100
AcDbLine
 10
-421.8472503726348
 20
222.1410187121485
 30
0.0
 11
-421.8773188784084
 21
221.9216552950268
 31
0.0
  0
SPLINE
  5
21B8
330
A
100
AcDbEntity
  8
0
370
    13
100
AcDbSpline
210
0.0
220
0.0
230
1.0
 70
     8
 71
     3
 72
     8
 73
     4
 74
     0
 42
0.0000000001
 43
0.0000000001
 40
0.0
 40
0.0
 40
0.0
 40
0.0
 40
1.0
 40
1.0
 40
1.0
 40
1.0
 10
-421.7116004090875
 20
220.1004605703245
 30
0.0
 10
-421.7167257225717
 20
220.1892993373831
 30
0.0
 10
-421.7621701687979
 20
220.270962665564
 30
0.0
 10
-421.8349496202728
 20
220.3235825506679
 30
0.0
  0
SPLINE
  5
21B9
330
A
100
AcDbEntity
  8
0
370
    13
100
AcDbSpline
210
0.0
220
0.0
230
1.0
 70
     8
 71
     3
 72
     8
 73
     4
 74
     0
 42
0.0000000001
 43
0.0000000001
 40
0.0
 40
0.0
 40
0.0
 40
0.0
 40
1.0
 40
1.0
 40
1.0
 40
1.0
 10
-421.8349496202728
 20
219.6432826075381
 30
0.0
 10
-421.7703706703725
 20
219.704786369348
 30
0.0
 10
-421.7362019138113
 20
219.792258386144
 30
0.0
 10
-421.7416689148612
 20
219.8810971532028
 30
0.0
  0
LINE
  5
21BA
330
A
100
AcDbEntity
  8
0
370
    13
100
AcDbLine
 10
-421.8349496202728
 20
219.6432826075381
 30
0.0
 11
-421.9665196258845
 21
219.4457618938236
 31
0.0
  0
LINE
  5
21BB
330
A
100
AcDbEntity
  8
0
370
    13
100
AcDbLine
 10
-422.0392787845076
 20
220.4599158893464
 30
0.0
 11
-421.8349496202728
 21
220.3235825506679
 31
0.0
  0
LINE
  5
21BC
330
A
100
AcDbEntity
  8
0
370
    13
100
AcDbLine
 10
-421.7116004090875
 20
220.1004605703245
 30
0.0
 11
-421.7416689148612
 21
219.8810971532028
 31
0.0
  0
SPLINE
  5
21BD
330
A
100
AcDbEntity
  8
0
370
    13
100
AcDbSpline
210
0.0
220
0.0
230
1.0
 70
     8
 71
     3
 72
     8
 73
     4
 74
     0
 42
0.0000000001
 43
0.0000000001
 40
0.0
 40
0.0
 40
0.0
 40
0.0
 40
1.0
 40
1.0
 40
1.0
 40
1.0
 10
-421.5752670704092
 20
218.1275565664914
 30
0.0
 10
-421.5803923838932
 20
218.2163953335499
 30
0.0
 10
-421.6258368301195
 20
218.2980586617309
 30
0.0
 10
-421.6986162815944
 20
218.3506785468348
 30
0.0
  0
SPLINE
  5
21BE
330
A
100
AcDbEntity
  8
0
370
    13
100
AcDbSpline
210
0.0
220
0.0
230
1.0
 70
     8
 71
     3
 72
     8
 73
     4
 74
     0
 42
0.0000000001
 43
0.0000000001
 40
0.0
 40
0.0
 40
0.0
 40
0.0
 40
1.0
 40
1.0
 40
1.0
 40
1.0
 10
-421.6986162815944
 20
217.670378603705
 30
0.0
 10
-421.634037331694
 20
217.7318823655149
 30
0.0
 10
-421.5998685751329
 20
217.8193543823109
 30
0.0
 10
-421.6053355761828
 20
217.9081931493697
 30
0.0
  0
LINE
  5
21BF
330
A
100
AcDbEntity
  8
0
370
    13
100
AcDbLine
 10
-421.6986162815944
 20
217.670378603705
 30
0.0
 11
-421.8310786874688
 21
217.4715181656667
 31
0.0
  0
LINE
  5
21C0
330
A
100
AcDbEntity
  8
0
370
    13
100
AcDbLine
 10
-421.9029454458293
 20
218.4870118855133
 30
0.0
 11
-421.6986162815944
 21
218.3506785468348
 31
0.0
  0
LINE
  5
21C1
330
A
100
AcDbEntity
  8
0
370
    13
100
AcDbLine
 10
-421.5752670704092
 20
218.1275565664914
 30
0.0
 11
-421.6053355761828
 21
217.9081931493697
 31
0.0
  0
SPLINE
  5
21C2
330
A
100
AcDbEntity
  8
0
370
    13
100
AcDbSpline
210
0.0
220
0.0
230
1.0
 70
     8
 71
     3
 72
     8
 73
     4
 74
     0
 42
0.0000000001
 43
0.0000000001
 40
0.0
 40
0.0
 40
0.0
 40
0.0
 40
1.0
 40
1.0
 40
1.0
 40
1.0
 10
-421.4392754192963
 20
216.0869984246675
 30
0.0
 10
-421.4444007327804
 20
216.175837191726
 30
0.0
 10
-421.4898451790066
 20
216.2575005199069
 30
0.0
 10
-421.5626246304815
 20
216.3101204050109
 30
0.0
  0
SPLINE
  5
21C3
330
A
100
AcDbEntity
  8
0
370
    13
100
AcDbSpline
210
0.0
220
0.0
230
1.0
 70
     8
 71
     3
 72
     8
 73
     4
 74
     0
 42
0.0000000001
 43
0.0000000001
 40
0.0
 40
0.0
 40
0.0
 40
0.0
 40
1.0
 40
1.0
 40
1.0
 40
1.0
 10
-421.5626246304815
 20
215.6298204618811
 30
0.0
 10
-421.4980456805811
 20
215.691324223691
 30
0.0
 10
-421.4638769240201
 20
215.778796240487
 30
0.0
 10
-421.4693439250699
 20
215.8676350075458
 30
0.0
  0
LINE
  5
21C4
330
A
100
AcDbEntity
  8
0
370
    13
100
AcDbLine
 10
-421.5626246304815
 20
215.6298204618811
 30
0.0
 11
-421.6950870363559
 21
215.4309600238428
 31
0.0
  0
LINE
  5
21C5
330
A
100
AcDbEntity
  8
0
370
    13
100
AcDbLine
 10
-421.7669537947164
 20
216.4464537436894
 30
0.0
 11
-421.5626246304815
 21
216.3101204050109
 31
0.0
  0
LINE
  5
21C6
330
A
100
AcDbEntity
  8
0
370
    13
100
AcDbLine
 10
-421.4392754192963
 20
216.0869984246675
 30
0.0
 11
-421.4693439250699
 21
215.8676350075458
 31
0.0
  0
SPLINE
  5
21C7
330
A
100
AcDbEntity
  8
0
370
    13
100
AcDbSpline
210
0.0
220
0.0
230
1.0
 70
     8
 71
     3
 72
     8
 73
     4
 74
     0
 42
0.0000000001
 43
0.0000000001
 40
0.0
 40
0.0
 40
0.0
 40
0.0
 40
1.0
 40
1.0
 40
1.0
 40
1.0
 10
-421.3029420806178
 20
214.1144361083999
 30
0.0
 10
-421.308067394102
 20
214.2032748754585
 30
0.0
 10
-421.3535118403282
 20
214.2849382036394
 30
0.0
 10
-421.426291291803
 20
214.3375580887433
 30
0.0
  0
SPLINE
  5
21C8
330
A
100
AcDbEntity
  8
0
370
    13
100
AcDbSpline
210
0.0
220
0.0
230
1.0
 70
     8
 71
     3
 72
     8
 73
     4
 74
     0
 42
0.0000000001
 43
0.0000000001
 40
0.0
 40
0.0
 40
0.0
 40
0.0
 40
1.0
 40
1.0
 40
1.0
 40
1.0
 10
-421.426291291803
 20
213.6572581456135
 30
0.0
 10
-421.3617123419027
 20
213.7187619074234
 30
0.0
 10
-421.3275435853416
 20
213.8062339242194
 30
0.0
 10
-421.3330105863914
 20
213.8950726912782
 30
0.0
  0
LINE
  5
21C9
330
A
100
AcDbEntity
  8
0
370
    13
100
AcDbLine
 10
-421.426291291803
 20
213.6572581456135
 30
0.0
 11
-421.5587536976775
 21
213.4583977075752
 31
0.0
  0
LINE
  5
21CA
330
A
100
AcDbEntity
  8
0
370
    13
100
AcDbLine
 10
-421.6306204560379
 20
214.4738914274219
 30
0.0
 11
-421.426291291803
 21
214.3375580887433
 31
0.0
  0
LINE
  5
21CB
330
A
100
AcDbEntity
  8
0
370
    13
100
AcDbLine
 10
-421.3029420806178
 20
214.1144361083999
 30
0.0
 11
-421.3330105863914
 21
213.8950726912782
 31
0.0
  0
SPLINE
  5
21CC
330
A
100
AcDbEntity
  8
0
370
    13
100
AcDbSpline
210
0.0
220
0.0
230
1.0
 70
     8
 71
     3
 72
     8
 73
     4
 74
     0
 42
0.0000000001
 43
0.0000000001
 40
0.0
 40
0.0
 40
0.0
 40
0.0
 40
1.0
 40
1.0
 40
1.0
 40
1.0
 10
-421.1672921170706
 20
212.1418737921323
 30
0.0
 10
-421.1724174305547
 20
212.2307125591909
 30
0.0
 10
-421.2178618767809
 20
212.3123758873718
 30
0.0
 10
-421.2906413282558
 20
212.3649957724757
 30
0.0
  0
SPLINE
  5
21CD
330
A
100
AcDbEntity
  8
0
370
    13
100
AcDbSpline
210
0.0
220
0.0
230
1.0
 70
     8
 71
     3
 72
     8
 73
     4
 74
     0
 42
0.0000000001
 43
0.0000000001
 40
0.0
 40
0.0
 40
0.0
 40
0.0
 40
1.0
 40
1.0
 40
1.0
 40
1.0
 10
-421.2906413282558
 20
211.6846958293459
 30
0.0
 10
-421.2260623783555
 20
211.7461995911558
 30
0.0
 10
-421.1918936217943
 20
211.8336716079518
 30
0.0
 10
-421.1973606228442
 20
211.9225103750105
 30
0.0
  0
LINE
  5
21CE
330
A
100
AcDbEntity
  8
0
370
    13
100
AcDbLine
 10
-421.2906413282558
 20
211.6846958293459
 30
0.0
 11
-421.4231037341303
 21
211.4858353913076
 31
0.0
  0
LINE
  5
21CF
330
A
100
AcDbEntity
  8
0
370
    13
100
AcDbLine
 10
-421.4949704924907
 20
212.5013291111542
 30
0.0
 11
-421.2906413282558
 21
212.3649957724757
 31
0.0
  0
LINE
  5
21D0
330
A
100
AcDbEntity
  8
0
370
    13
100
AcDbLine
 10
-421.1672921170706
 20
212.1418737921323
 30
0.0
 11
-421.1973606228442
 21
211.9225103750105
 31
0.0
  0
SPLINE
  5
21D1
330
A
100
AcDbEntity
  8
0
370
    13
100
AcDbSpline
210
0.0
220
0.0
230
1.0
 70
     8
 71
     3
 72
     8
 73
     4
 74
     0
 42
0.0000000001
 43
0.0000000001
 40
0.0
 40
0.0
 40
0.0
 40
0.0
 40
1.0
 40
1.0
 40
1.0
 40
1.0
 10
-421.0313004659577
 20
210.1013156503084
 30
0.0
 10
-421.0364257794418
 20
210.1901544173669
 30
0.0
 10
-421.081870225668
 20
210.2718177455479
 30
0.0
 10
-421.1546496771429
 20
210.3244376306518
 30
0.0
  0
SPLINE
  5
21D2
330
A
100
AcDbEntity
  8
0
370
    13
100
AcDbSpline
210
0.0
220
0.0
230
1.0
 70
     8
 71
     3
 72
     8
 73
     4
 74
     0
 42
0.0000000001
 43
0.0000000001
 40
0.0
 40
0.0
 40
0.0
 40
0.0
 40
1.0
 40
1.0
 40
1.0
 40
1.0
 10
-421.1546496771429
 20
209.644137687522
 30
0.0
 10
-421.0900707272426
 20
209.7056414493319
 30
0.0
 10
-421.0559019706815
 20
209.7931134661279
 30
0.0
 10
-421.0613689717313
 20
209.8819522331866
 30
0.0
  0
LINE
  5
21D3
330
A
100
AcDbEntity
  8
0
370
    13
100
AcDbLine
 10
-421.1546496771429
 20
209.644137687522
 30
0.0
 11
-421.2906082259114
 21
209.44002863194
 31
0.0
  0
LINE
  5
21D4
330
A
100
AcDbEntity
  8
0
370
    13
100
AcDbLine
 10
-421.3589788413778
 20
210.4607709693303
 30
0.0
 11
-421.1546496771429
 21
210.3244376306518
 31
0.0
  0
LINE
  5
21D5
330
A
100
AcDbEntity
  8
0
370
    13
100
AcDbLine
 10
-421.0313004659577
 20
210.1013156503084
 30
0.0
 11
-421.0613689717313
 21
209.8819522331866
 31
0.0
  0
SPLINE
  5
21D6
330
A
100
AcDbEntity
  8
0
370
    13
100
AcDbSpline
210
0.0
220
0.0
230
1.0
 70
     8
 71
     3
 72
     8
 73
     4
 74
     0
 42
0.0000000001
 43
0.0000000001
 40
0.0
 40
0.0
 40
0.0
 40
0.0
 40
1.0
 40
1.0
 40
1.0
 40
1.0
 10
-420.8949671272793
 20
208.129436709172
 30
0.0
 10
-420.9000924407634
 20
208.2182754762306
 30
0.0
 10
-420.9455368869896
 20
208.2999388044115
 30
0.0
 10
-421.0183163384646
 20
208.3525586895154
 30
0.0
  0
SPLINE
  5
21D7
330
A
100
AcDbEntity
  8
0
370
    13
100
AcDbSpline
210
0.0
220
0.0
230
1.0
 70
     8
 71
     3
 72
     8
 73
     4
 74
     0
 42
0.0000000001
 43
0.0000000001
 40
0.0
 40
0.0
 40
0.0
 40
0.0
 40
1.0
 40
1.0
 40
1.0
 40
1.0
 10
-421.0183163384646
 20
207.6722587463856
 30
0.0
 10
-420.9537373885642
 20
207.7337625081955
 30
0.0
 10
-420.9195686320031
 20
207.8212345249915
 30
0.0
 10
-420.9250356330529
 20
207.9100732920503
 30
0.0
  0
LINE
  5
21D8
330
A
100
AcDbEntity
  8
0
370
    13
100
AcDbLine
 10
-421.0183163384646
 20
207.6722587463856
 30
0.0
 11
-421.1507787443389
 21
207.4733983083473
 31
0.0
  0
LINE
  5
21D9
330
A
100
AcDbEntity
  8
0
370
    13
100
AcDbLine
 10
-421.2226455026994
 20
208.488892028194
 30
0.0
 11
-421.0183163384646
 21
208.3525586895154
 31
0.0
  0
LINE
  5
21DA
330
A
100
AcDbEntity
  8
0
370
    13
100
AcDbLine
 10
-420.8949671272793
 20
208.129436709172
 30
0.0
 11
-420.9250356330529
 21
207.9100732920503
 31
0.0
  0
SPLINE
  5
21DB
330
A
100
AcDbEntity
  8
0
370
    13
100
AcDbSpline
210
0.0
220
0.0
230
1.0
 70
     8
 71
     3
 72
     8
 73
     4
 74
     0
 42
0.0000000001
 43
0.0000000001
 40
0.0
 40
0.0
 40
0.0
 40
0.0
 40
1.0
 40
1.0
 40
1.0
 40
1.0
 10
-420.7586337886008
 20
206.0878535046512
 30
0.0
 10
-420.763759102085
 20
206.1766922717098
 30
0.0
 10
-420.8092035483112
 20
206.2583555998907
 30
0.0
 10
-420.881982999786
 20
206.3109754849946
 30
0.0
  0
SPLINE
  5
21DC
330
A
100
AcDbEntity
  8
0
370
    13
100
AcDbSpline
210
0.0
220
0.0
230
1.0
 70
     8
 71
     3
 72
     8
 73
     4
 74
     0
 42
0.0000000001
 43
0.0000000001
 40
0.0
 40
0.0
 40
0.0
 40
0.0
 40
1.0
 40
1.0
 40
1.0
 40
1.0
 10
-420.881982999786
 20
205.6306755418648
 30
0.0
 10
-420.8174040498857
 20
205.6921793036747
 30
0.0
 10
-420.7832352933246
 20
205.7796513204707
 30
0.0
 10
-420.7887022943745
 20
205.8684900875295
 30
0.0
  0
LINE
  5
21DD
330
A
100
AcDbEntity
  8
0
370
    13
100
AcDbLine
 10
-420.881982999786
 20
205.6306755418648
 30
0.0
 11
-421.0144454056605
 21
205.4318151038265
 31
0.0
  0
LINE
  5
21DE
330
A
100
AcDbEntity
  8
0
370
    13
100
AcDbLine
 10
-421.0863121640209
 20
206.4473088236731
 30
0.0
 11
-420.881982999786
 21
206.3109754849946
 31
0.0
  0
LINE
  5
21DF
330
A
100
AcDbEntity
  8
0
370
    13
100
AcDbLine
 10
-420.7586337886008
 20
206.0878535046512
 30
0.0
 11
-420.7887022943745
 21
205.8684900875295
 31
0.0
  0
SPLINE
  5
21E0
330
A
100
AcDbEntity
  8
0
370
    13
100
AcDbSpline
210
0.0
220
0.0
230
1.0
 70
     8
 71
     3
 72
     8
 73
     4
 74
     0
 42
0.0000000001
 43
0.0000000001
 40
0.0
 40
0.0
 40
0.0
 40
0.0
 40
1.0
 40
1.0
 40
1.0
 40
1.0
 10
-420.6233255126192
 20
204.1159745635149
 30
0.0
 10
-420.6284508261033
 20
204.2048133305735
 30
0.0
 10
-420.6738952723295
 20
204.2864766587544
 30
0.0
 10
-420.7466747238044
 20
204.3390965438583
 30
0.0
  0
SPLINE
  5
21E1
330
A
100
AcDbEntity
  8
0
370
    13
100
AcDbSpline
210
0.0
220
0.0
230
1.0
 70
     8
 71
     3
 72
     8
 73
     4
 74
     0
 42
0.0000000001
 43
0.0000000001
 40
0.0
 40
0.0
 40
0.0
 40
0.0
 40
1.0
 40
1.0
 40
1.0
 40
1.0
 10
-420.7466747238044
 20
203.6587966007285
 30
0.0
 10
-420.682095773904
 20
203.7203003625384
 30
0.0
 10
-420.647927017343
 20
203.8077723793345
 30
0.0
 10
-420.6533940183928
 20
203.8966111463932
 30
0.0
  0
LINE
  5
21E2
330
A
100
AcDbEntity
  8
0
370
    13
100
AcDbLine
 10
-420.7466747238044
 20
203.6587966007285
 30
0.0
 11
-420.8791371296788
 21
203.4599361626902
 31
0.0
  0
LINE
  5
21E3
330
A
100
AcDbEntity
  8
0
370
    13
100
AcDbLine
 10
-420.9510038880392
 20
204.4754298825369
 30
0.0
 11
-420.7466747238044
 21
204.3390965438583
 31
0.0
  0
LINE
  5
21E4
330
A
100
AcDbEntity
  8
0
370
    13
100
AcDbLine
 10
-420.6233255126192
 20
204.1159745635149
 30
0.0
 11
-420.6533940183928
 21
203.8966111463932
 31
0.0
  0
SPLINE
  5
21E5
330
A
100
AcDbEntity
  8
0
370
    13
100
AcDbSpline
210
0.0
220
0.0
230
1.0
 70
     8
 71
     3
 72
     8
 73
     4
 74
     0
 42
0.0000000001
 43
0.0000000001
 40
0.0
 40
0.0
 40
0.0
 40
0.0
 40
1.0
 40
1.0
 40
1.0
 40
1.0
 10
-420.4869921739407
 20
202.0754164216909
 30
0.0
 10
-420.4921174874248
 20
202.1642551887495
 30
0.0
 10
-420.5375619336511
 20
202.2459185169304
 30
0.0
 10
-420.6103413851259
 20
202.2985384020343
 30
0.0
  0
SPLINE
  5
21E6
330
A
100
AcDbEntity
  8
0
370
    13
100
AcDbSpline
210
0.0
220
0.0
230
1.0
 70
     8
 71
     3
 72
     8
 73
     4
 74
     0
 42
0.0000000001
 43
0.0000000001
 40
0.0
 40
0.0
 40
0.0
 40
0.0
 40
1.0
 40
1.0
 40
1.0
 40
1.0
 10
-420.6103413851259
 20
201.6182384589046
 30
0.0
 10
-420.5457624352256
 20
201.6797422207144
 30
0.0
 10
-420.5115936786645
 20
201.7672142375105
 30
0.0
 10
-420.5170606797143
 20
201.8560530045692
 30
0.0
  0
LINE
  5
21E7
330
A
100
AcDbEntity
  8
0
370
    13
100
AcDbLine
 10
-420.6103413851259
 20
201.6182384589046
 30
0.0
 11
-420.7466747238044
 21
201.41356674643
 31
0.0
  0
LINE
  5
21E8
330
A
100
AcDbEntity
  8
0
370
    13
100
AcDbLine
 10
-420.8146705493608
 20
202.4348717407129
 30
0.0
 11
-420.6103413851259
 21
202.2985384020343
 31
0.0
  0
LINE
  5
21E9
330
A
100
AcDbEntity
  8
0
370
    13
100
AcDbLine
 10
-420.4869921739407
 20
202.0754164216909
 30
0.0
 11
-420.5170606797143
 21
201.8560530045692
 31
0.0
  0
ARC
  5
21FC
330
A
100
AcDbEntity
  8
0
370
    13
100
AcDbCircle
 10
-407.4150285054916
 20
173.396740163848
 30
0.0
 40
0.2
100
AcDbArc
 50
60.25511870305709
 51
89.99999999999982
  0
ARC
  5
21FD
330
A
100
AcDbEntity
  8
0
370
    13
100
AcDbCircle
 10
-406.3256910109
 20
173.396740163848
 30
0.0
 40
0.2
100
AcDbArc
 50
90.0
 51
123.6458236895874
  0
LINE
  5
21FE
330
A
100
AcDbEntity
  8
0
370
    13
100
AcDbLine
 10
-407.2450821889375
 20
157.655318787679
 30
0.0
 11
-406.8369156180767
 21
158.0634853585398
 31
0.0
  0
LINE
  5
21FF
330
A
100
AcDbEntity
  8
0
370
    13
100
AcDbLine
 10
-406.428749047216
 20
157.655318787679
 30
0.0
 11
-406.8369156180768
 21
158.0634853585398
 31
0.0
  0
ARC
  5
2200
330
A
100
AcDbEntity
  8
0
370
    13
100
AcDbCircle
 10
-407.3865035451748
 20
157.7967401439163
 30
0.0
 40
0.2
100
AcDbArc
 50
270.0
 51
315.0000000000023
  0
ARC
  5
2201
330
A
100
AcDbEntity
  8
0
370
    13
100
AcDbCircle
 10
-406.2873276909788
 20
157.7967401439163
 30
0.0
 40
0.2
100
AcDbArc
 50
224.9999999999976
 51
269.9999999999998
  0
LWPOLYLINE
  5
223D
102
{ACAD_REACTORS
330
225F
102
}
330
A
100
AcDbEntity
  8
0
 62
     4
370
    13
100
AcDbPolyline
 90
        6
 70
     0
 43
0.0
 10
-412.6236436832384
 20
325.5967401439163
 10
-412.6236436832384
 20
176.5967401439163
 10
-411.6236436832385
 20
175.5967401439163
 10
-397.1236436832384
 20
175.5967401439163
 10
-396.1236436832384
 20
176.5967401439163
 10
-396.1236436832383
 20
325.5967401439163
  0
LWPOLYLINE
  5
223E
102
{ACAD_REACTORS
330
225F
102
}
330
A
100
AcDbEntity
  8
0
 62
     4
370
    13
100
AcDbPolyline
 90
        6
 70
     0
 43
0.0
 10
-404.1236436832383
 20
325.5967401439163
 10
-404.1236436832384
 20
176.5967401439163
 10
-403.1236436832385
 20
175.5967401439163
 10
-397.1236436832384
 20
175.5967401439163
 10
-396.1236436832384
 20
176.5967401439163
 10
-396.1236436832383
 20
325.5967401439163
  0
LWPOLYLINE
  5
223F
102
{ACAD_REACTORS
330
225F
102
}
330
A
100
AcDbEntity
  8
0
 62
     4
370
    13
100
AcDbPolyline
 90
        6
 70
     0
 43
0.0
 10
-412.6236436832384
 20
325.5967401439163
 10
-412.6236436832384
 20
176.5967401439163
 10
-411.6236436832385
 20
175.5967401439163
 10
-405.6236436832384
 20
175.5967401439163
 10
-404.6236436832384
 20
176.5967401439163
 10
-404.6236436832383
 20
325.5967401439163
  0
DIMENSION
  5
2240
330
A
100
AcDbEntity
  8
寸法
370
    13
100
AcDbDimension
  2
*D1
 10
-412.6236436832384
 20
325.5967401439163
 30
0.0
 11
-404.3736436832383
 21
327.5967401439163
 31
0.0
 70
    32
  1
{\fMS UI Gothic|b0|i0|c128|p17;\U+2260}<>
 71
     5
 42
16.5
  3
ISO-25 1／10
100
AcDbAlignedDimension
 13
-396.1236436832383
 23
320.3621615970587
 33
0.0
 14
-412.6236436832384
 24
320.5967400724878
 34
0.0
 50
180.0
100
AcDbRotatedDimension
1001
ACAD
1000
DSTYLE
1002
{
1070
   279
1070
     1
1002
}
  0
LINE
  5
2276
330
A
100
AcDbEntity
  8
0
370
    13
100
AcDbLine
 10
-398.9647757912869
 20
172.0801926750004
 30
0.0
 11
-414.7090554448676
 21
172.0801926750004
 31
0.0
  0
LINE
  5
2277
330
A
100
AcDbEntity
  8
0
370
    13
100
AcDbLine
 10
-397.3140831618242
 20
161.6197695414105
 30
0.0
 11
-416.3597480743341
 21
161.6197695414105
 31
0.0
  0
SPLINE
  5
2278
330
A
100
AcDbEntity
  8
0
370
    13
100
AcDbSpline
210
0.0
220
0.0
230
1.0
 70
     8
 71
     3
 72
     8
 73
     4
 74
     0
 42
0.0000000001
 43
0.0000000001
 40
2.0
 40
2.0
 40
2.0
 40
2.0
 40
3.0
 40
3.0
 40
3.0
 40
3.0
 10
-418.3654540844612
 20
168.0879151584111
 30
0.0
 10
-418.3654540844612
 20
170.3034173338275
 30
0.0
 10
-416.8124840987629
 20
172.0801926750004
 30
0.0
 10
-414.7090554448666
 20
172.0801926750004
 30
0.0
  0
SPLINE
  5
2279
330
A
100
AcDbEntity
  8
0
370
    13
100
AcDbSpline
210
0.0
220
0.0
230
1.0
 70
    24
 71
     3
 72
     8
 73
     4
 74
     0
 42
0.0000000001
 43
0.0000000001
 40
1.0
 40
1.0
 40
1.0
 40
1.0
 40
2.0
 40
2.0
 40
2.0
 40
2.0
 10
-418.3654540844612
 20
163.6254755515422
 30
0.0
 10
-418.3654540844612
 20
163.6254755515422
 30
0.0
 10
-418.3654540844612
 20
168.0879151584111
 30
0.0
 10
-418.3654540844612
 20
168.0879151584111
 30
0.0
  0
SPLINE
  5
227A
330
A
100
AcDbEntity
  8
0
370
    13
100
AcDbSpline
210
0.0
220
0.0
230
1.0
 70
     8
 71
     3
 72
     8
 73
     4
 74
     0
 42
0.0000000001
 43
0.0000000001
 40
0.0
 40
0.0
 40
0.0
 40
0.0
 40
1.0
 40
1.0
 40
1.0
 40
1.0
 10
-416.3597480743294
 20
161.6197695414105
 30
0.0
 10
-417.4674991620376
 20
161.6197695414105
 30
0.0
 10
-418.3654540844612
 20
162.5177244638341
 30
0.0
 10
-418.3654540844612
 20
163.6254755515422
 30
0.0
  0
LWPOLYLINE
  5
2332
330
A
100
AcDbEntity
  8
0
370
    13
100
AcDbPolyline
 90
        4
 70
     1
 43
0.0
 10
-411.3369156180767
 20
157.5967401439163
 10
-402.3369156180767
 20
157.5967401439163
 10
-402.3369156180767
 20
161.6197695414105
 10
-411.3369156180767
 20
161.6197695414105
  0
DIMENSION
  5
2333
330
A
100
AcDbEntity
  8
寸法
370
    13
100
AcDbDimension
  2
*D2
 10
-371.8368998533942
 20
142.5967401439163
 30
0.0
 11
-406.8369156180816
 21
144.5967401439163
 31
0.0
 70
    32
 71
     5
 42
70.00003152937484
  3
ISO-25 1／10
100
AcDbAlignedDimension
 13
-441.836931382769
 23
158.0959397835056
 33
0.0
 14
-371.8368998533942
 24
158.0978189329117
 34
0.0
100
AcDbRotatedDimension
1001
ACAD
1000
DSTYLE
1002
{
1070
   279
1070
     1
1002
}
  0
DIMENSION
  5
2334
330
A
100
AcDbEntity
  8
寸法
370
    13
100
AcDbDimension
  2
*D4
 10
-402.3369156180767
 20
152.5967401439163
 30
0.0
 11
-406.8369156180767
 21
154.5967401439163
 31
0.0
 70
    32
  1
%%c<>
 71
     5
 42
9.0
  3
ISO-25 1／10
100
AcDbAlignedDimension
 13
-411.3369156180767
 23
158.5976458417576
 33
0.0
 14
-402.3369156180767
 24
158.5976458417576
 34
0.0
100
AcDbRotatedDimension
1001
ACAD
1000
DSTYLE
1002
{
1070
   279
1070
     1
1002
}
  0
DIMENSION
  5
2335
330
A
100
AcDbEntity
  8
寸法
370
    13
100
AcDbDimension
  2
*D3
 10
-396.8368681850628
 20
147.5967401439163
 30
0.0
 11
-406.8368681850628
 21
149.5967401439163
 31
0.0
 70
    32
  1
%%c<>
 71
     5
 42
20.0
  3
ISO-25 1／10
100
AcDbAlignedDimension
 13
-416.8368681850628
 23
169.6318921406311
 33
0.0
 14
-396.8368681850628
 24
168.4233946451915
 34
0.0
100
AcDbRotatedDimension
1001
ACAD
1000
DSTYLE
1002
{
1070
   279
1070
     1
1002
}
  0
LINE
  5
23AB
330
A
100
AcDbEntity
  8
0
370
    13
100
AcDbLine
 10
-396.8369156180767
 20
171.3661686303996
 30
0.0
 11
-396.8369156180767
 21
171.3661686303996
 31
0.0
  0
LINE
  5
23AC
330
A
100
AcDbEntity
  8
0
370
    13
100
AcDbLine
 10
-396.8369156180767
 20
171.3661686303996
 30
0.0
 11
-396.8369156180767
 21
173.8830066464496
 31
0.0
  0
LINE
  5
23AE
330
A
100
AcDbEntity
  8
0
370
    13
100
AcDbLine
 10
-416.8369156180767
 20
173.5967401638479
 30
0.0
 11
-416.8369156180767
 21
171.3661686303998
 31
0.0
  0
DIMENSION
  5
241B
330
A
100
AcDbEntity
  8
寸法
370
    13
100
AcDbDimension
  2
*D5
 10
-446.4333394692942
 20
157.5895862052266
 30
0.0
 11
-448.4333394692942
 21
212.5929925728139
 31
0.0
 70
    32
 71
     5
 42
110.0068127351746
  3
ISO-25 1／10
100
AcDbAlignedDimension
 13
-425.8443115151429
 23
267.5963989404014
 33
0.0
 14
-440.934266228502
 24
157.5895862052266
 34
0.0
 50
270.0
100
AcDbRotatedDimension
1001
ACAD
1000
DSTYLE
1002
{
1070
   279
1070
     1
1002
}
  0
ENDSEC
  0
SECTION
  2
OBJECTS
  0
DICTIONARY
  5
19
330
0
100
AcDbDictionary
281
     1
  3
ACAD_GROUP
350
1A
  3
ACAD_IMAGE_VARS
350
11F1
  3
ACAD_LAYOUT
350
1E
  3
ACAD_MLINESTYLE
350
1B
  3
ACAD_PLOTSETTINGS
350
22
  3
ACAD_PLOTSTYLENAME
350
1F
  3
ACAD_WIPEOUT_VARS
350
23
  0
DICTIONARY
  5
1351
330
2
100
AcDbDictionary
280
     1
281
     1
  3
ACAD_LAYERFILTERS
360
1352
  0
IMAGEDEF_REACTOR
  5
3C
330
3B
100
AcDbRasterImageDefReactor
 90
        2
330
3B
  0
DICTIONARY
  5
1A
102
{ACAD_REACTORS
330
19
102
}
330
19
100
AcDbDictionary
281
     1
  3
*A1
350
1B82
  3
*A2
350
1E7E
  3
*A3
350
20BC
  3
*A4
350
1B97
  3
*A5
350
1B9F
  3
*A6
350
1BA7
  3
*A7
350
1BAF
  3
*A8
350
1BB7
  3
*A9
350
1BBF
  3
*A10
350
1BCC
  3
*A11
350
1BD4
  3
*A12
350
1BDC
  3
*A13
350
225F
  3
*A14
350
1BE4
  3
*A15
350
1BEC
  3
*A16
350
1BF4
  3
*A17
350
1C03
  3
*A18
350
1C09
  3
*A19
350
1E10
  3
*A20
350
1E11
  0
RASTERVARIABLES
  5
11F1
102
{ACAD_REACTORS
330
19
102
}
330
19
100
AcDbRasterVariables
 90
        0
 70
     1
 71
     1
 72
     0
  0
DICTIONARY
  5
1E
102
{ACAD_REACTORS
330
19
102
}
330
19
100
AcDbDictionary
281
     1
  3
Layout1
350
21
  3
Model
350
20
  0
DICTIONARY
  5
1B
102
{ACAD_REACTORS
330
19
102
}
330
19
100
AcDbDictionary
281
     1
  3
Standard
350
1C
  0
DICTIONARY
  5
22
102
{ACAD_REACTORS
330
19
102
}
330
19
100
AcDbDictionary
281
     1
  0
ACDBDICTIONARYWDFLT
  5
1F
102
{ACAD_REACTORS
330
19
102
}
330
19
100
AcDbDictionary
281
     1
  3
Normal
350
1D
100
AcDbDictionaryWithDefault
340
1D
  0
ACAD_PROXY_OBJECT
  5
23
330
19
100
AcDbProxyObject
 90
      499
 91
      521
 95
   393239
 70
     0
 93
       10
310
4044
 94
        0
  0
DICTIONARY
  5
1352
102
{ACAD_REACTORS
330
1351
102
}
330
1351
100
AcDbDictionary
280
     1
281
     1
  3
-100
360
1353
  3
-50
360
1354
  3
-ben
360
1355
  3
-H
360
1356
  3
-T
360
1357
  3
$
360
1358
  3
$0$
360
1359
  3
0
360
135A
  3
0-
360
135B
  3
00
360
135C
  3
01
360
135D
  3
01KUTAI
360
135E
  3
01全体計画平面図
360
135F
  3
02現況平面図
360
1360
  3
03撤去平面図
360
1361
  3
04造成平面図
360
1362
  3
05
360
1363
  3
05施設平面図
360
1364
  3
06
360
1365
  3
06siki
360
1366
  3
06siki2
360
1367
  3
06排水平面図
360
1368
  3
07
360
1369
  3
07給水平面図
360
136A
  3
0割付平面図
360
136B
  3
0潅水平面
360
136C
  3
0計画平面
360
136D
  3
0高木植栽
360
136E
  3
0施設平面
360
136F
  3
0床内
360
1370
  3
0床壁
360
1371
  3
0照明配置図
360
1372
  3
0詳細図
360
1373
  3
0植栽基盤
360
1374
  3
0全体工区区分図
360
1375
  3
0総合図off
360
1376
  3
0総合図枠
360
1377
  3
0低木
360
1378
  3
0排水平面
360
1379
  3
0平詳枠
360
137A
  3
0擁壁平面図
360
137B
  3
1
360
137C
  3
10
360
137D
  3
100
360
137E
  3
10植栽平面図
360
137F
  3
11
360
1380
  3
1111
360
1381
  3
11寸法図
360
1382
  3
12
360
1383
  3
19
360
1384
  3
１Ｆ床伏OFF
360
1385
  3
1階
360
1386
  3
1床
360
1387
  3
1芯
360
1388
  3
1芯線
360
1389
  3
20
360
138A
  3
21
360
138B
  3
250
360
138C
  3
2fmiage
360
138D
  3
2躯体
360
138E
  3
2断面
360
138F
  3
2壁
360
1390
  3
300
360
1391
  3
32
360
1392
  3
333
360
1393
  3
37
360
1394
  3
3D
360
1395
  3
3開口
360
1396
  3
3見掛り
360
1397
  3
3天井内
360
1398
  3
41
360
1399
  3
4仕上げ
360
139A
  3
4天井
360
139B
  3
5
360
139C
  3
50
360
139D
  3
50off
360
139E
  3
51-52
360
139F
  3
555
360
13A0
  3
5寸法
360
13A1
  3
5文字
360
13A2
  3
6
360
13A3
  3
66-躯体図
360
13A4
  3
66躯体図
360
13A5
  3
6記号
360
13A6
  3
6文字
360
13A7
  3
6保留
360
13A8
  3
767
360
13A9
  3
767SE13-0...$
360
13AA
  3
767SE13-07-99$0$
360
13AB
  3
7記号
360
13AC
  3
8
360
13AD
  3
8寸法
360
13AE
  3
8設備
360
13AF
  3
9文字
360
13B0
  3
9目地
360
13B1
  3
A
360
13B2
  3
A-
360
13B3
  3
A(枠･表)を表示
360
13B4
  3
A01
360
13B5
  3
A1.DEMO-KEY NOTE
360
13B6
  3
A2. CONS-KEY NOTE
360
13B7
  3
A21
360
13B8
  3
A3
360
13B9
  3
A3. RCP-LAYER
360
13BA
  3
A3D. RCP_DEMO-KEY NOTE
360
13BB
  3
A4. P&T- KEY NOTE
360
13BC
  3
A4D. EL_DEMO-KEY NOTE
360
13BD
  3
A5. FINISH-KEY NOTE
360
13BE
  3
A6. FURN-KEY NOTE
360
13BF
  3
aa
360
13C0
  3
aaa
360
13C1
  3
AB棟
360
13C2
  3
ＡＢ棟
360
13C3
  3
ACTIVE
360
13C4
  3
ACTIVE2
360
13C5
  3
ALC
360
13C6
  3
ALL
360
13C7
  3
all選択
360
13C8
  3
AMENAGEMENT
360
13C9
  3
AQ
360
13CA
  3
ARBOL
360
13CB
  3
AREA
360
13CC
  3
AREA-SG
360
13CD
  3
AS1
360
13CE
  3
aハッチング
360
13CF
  3
A空調
360
13D0
  3
B
360
13D1
  3
B(基準)を表示
360
13D2
  3
B2
360
13D3
  3
B3
360
13D4
  3
BAL
360
13D5
  3
baru
360
13D6
  3
baru2
360
13D7
  3
BASE
360
13D8
  3
bb
360
13D9
  3
bbbb
360
13DA
  3
beam
360
13DB
  3
blocchi
360
13DC
  3
blue
360
13DD
  3
BSM
360
13DE
  3
b階段
360
13DF
  3
B電気
360
13E0
  3
c
360
13E1
  3
c-block
360
13E2
  3
c-block-2
360
13E3
  3
C(寸･文･記)を表示
360
13E4
  3
cajetin
360
13E5
  3
cc
360
13E6
  3
CD06
360
13E7
  3
ＣＤ棟
360
13E8
  3
ceiling
360
13E9
  3
CEILINGS XREF
360
13EA
  3
CEL
360
13EB
  3
che
360
13EC
  3
chika
360
13ED
  3
CLG
360
13EE
  3
COL
360
13EF
  3
cold beam
360
13F0
  3
colu
360
13F1
  3
com
360
13F2
  3
con
360
13F3
  3
CRG
360
13F4
  3
cyan
360
13F5
  3
C衛生
360
13F6
  3
C街区関連
360
13F7
  3
c雑金物
360
13F8
  3
C打計画図
360
13F9
  3
D
360
13FA
  3
D(表現補助)を表示
360
13FB
  3
Ｄ・墓地　施設平面
360
13FC
  3
D16
360
13FD
  3
DASHED
360
13FE
  3
DASHED2
360
13FF
  3
DEMO
360
1400
  3
DEMOLITION
360
1401
  3
detail
360
1402
  3
details
360
1403
  3
DHED
360
1404
  3
Dim
360
1405
  3
disegno
360
1406
  3
DOORS
360
1407
  3
DR
360
1408
  3
DT
360
1409
  3
d外構
360
140A
  3
Ｄ街区低木
360
140B
  3
D割付平面
360
140C
  3
Ｄ給水設備
360
140D
  3
Ｄ計画高平面
360
140E
  3
Ｄ計画平面
360
140F
  3
Ｄ工事区分
360
1410
  3
Ｄ高木植栽
360
1411
  3
Ｄ施設平面
360
1412
  3
Ｄ照明設備
360
1413
  3
Ｄ低木
360
1414
  3
Ｄ電気設備
360
1415
  3
Ｄ土壌改良
360
1416
  3
Ｄ排水平面
360
1417
  3
D舗装平面
360
1418
  3
Ｄ墓地施設平面
360
1419
  3
D墓地排水
360
141A
  3
E
360
141B
  3
E(点線系)を表示
360
141C
  3
EEEE
360
141D
  3
EISEI
360
141E
  3
elec
360
141F
  3
ERAS1F
360
1420
  3
existing
360
1421
  3
Exit
360
1422
  3
F
360
1423
  3
F(断面)を表示
360
1424
  3
F1
360
1425
  3
face4
360
1426
  3
FC_CLADDING
360
1427
  3
FENCE
360
1428
  3
FF
360
1429
  3
FH
360
142A
  3
FILTER1
360
142B
  3
fini
360
142C
  3
finish
360
142D
  3
FIRE
360
142E
  3
fixture
360
142F
  3
fl
360
1430
  3
Floor
360
1431
  3
FLOOR PLAN
360
1432
  3
fr
360
1433
  3
freeze
360
1434
  3
FRZ
360
1435
  3
Fugou
360
1436
  3
FUGOU-TATEGU
360
1437
  3
FUKI
360
1438
  3
FURN
360
1439
  3
FURNITURE
360
143A
  3
FUSE_00
360
143B
  3
G
360
143C
  3
G(開口)を表示
360
143D
  3
GAIKOU
360
143E
  3
gel
360
143F
  3
gen
360
1440
  3
gondora
360
1441
  3
green
360
1442
  3
GRID
360
1443
  3
gris
360
1444
  3
H
360
1445
  3
H-
360
1446
  3
H-SIN
360
1447
  3
H(見掛)を表示
360
1448
  3
HA
360
1449
  3
haikin
360
144A
  3
HAISEN
360
144B
  3
HARI
360
144C
  3
hasira
360
144D
  3
HATCH
360
144E
  3
HCP
360
144F
  3
HEISHO
360
1450
  3
HEISHO2
360
1451
  3
HIDDEN
360
1452
  3
HOJO
360
1453
  3
hollywood
360
1454
  3
HOTEL
360
1455
  3
huse
360
1456
  3
HYOKI
360
1457
  3
HYOUKI
360
1458
  3
i
360
1459
  3
I(二次部材系))を表示
360
145A
  3
I2
360
145B
  3
i2cl
360
145C
  3
i5
360
145D
  3
i9
360
145E
  3
in
360
145F
  3
INSERT図
360
1460
  3
ISSUE
360
1461
  3
J
360
1462
  3
K
360
1463
  3
KABE
360
1464
  3
KABESHIN
360
1465
  3
KAGU
360
1466
  3
key
360
1467
  3
KI
360
1468
  3
KIGO
360
1469
  3
KIJUN
360
146A
  3
kiso
360
146B
  3
KSIN
360
146C
  3
kui
360
146D
  3
KUTAI
360
146E
  3
L
360
146F
  3
LEGEND
360
1470
  3
LGS
360
1471
  3
light
360
1472
  3
LIST
360
1473
  3
lixo
360
1474
  3
LOCK
360
1475
  3
LTA
360
1476
  3
Ｌ建具
360
1477
  3
M
360
1478
  3
MA
360
1479
  3
MACONNERIE
360
147A
  3
magenta
360
147B
  3
magenta-bleu
360
147C
  3
maji
360
147D
  3
MAJIKIRI
360
147E
  3
marco
360
147F
  3
MB
360
1480
  3
meji
360
1481
  3
merceologico
360
1482
  3
MILL
360
1483
  3
MILLWORK
360
1484
  3
miwa
360
1485
  3
MOJI
360
1486
  3
MOJI100
360
1487
  3
N
360
1488
  3
N-
360
1489
  3
NAM
360
148A
  3
NEW
360
148B
  3
NHK
360
148C
  3
no xref
360
148D
  3
note
360
148E
  3
NUM
360
148F
  3
NUMB
360
1490
  3
O
360
1491
  3
OF
360
1492
  3
OFF
360
1493
  3
on
360
1494
  3
option 1
360
1495
  3
option 2
360
1496
  3
OUTLINE
360
1497
  3
P
360
1498
  3
pa
360
1499
  3
PALFOND
360
149A
  3
PAT
360
149B
  3
PC
360
149C
  3
PISO
360
149D
  3
PLAN
360
149E
  3
PLMB
360
149F
  3
plot
360
14A0
  3
PLUMB
360
14A1
  3
PNL
360
14A2
  3
power
360
14A3
  3
PRT
360
14A4
  3
q
360
14A5
  3
R
360
14A6
  3
rack
360
14A7
  3
RC
360
14A8
  3
RCP
360
14A9
  3
rm
360
14AA
  3
RMTAGS
360
14AB
  3
RNUM
360
14AC
  3
ROOM
360
14AD
  3
roomno
360
14AE
  3
rouge
360
14AF
  3
rtkl
360
14B0
  3
S
360
14B1
  3
saciencewold
360
14B2
  3
SETUBI
360
14B3
  3
SHITU
360
14B4
  3
SHITUMEI
360
14B5
  3
SIAG
360
14B6
  3
SIAG-N
360
14B7
  3
SIAG3
360
14B8
  3
sin
360
14B9
  3
Sinm
360
14BA
  3
SITA
360
14BB
  3
siyah
360
14BC
  3
SS
360
14BD
  3
ST
360
14BE
  3
STA
360
14BF
  3
stairs
360
14C0
  3
SUGA5
360
14C1
  3
SUNP
360
14C2
  3
SUNP100
360
14C3
  3
T
360
14C4
  3
TAKASA
360
14C5
  3
TATE161
360
14C6
  3
TATEGU
360
14C7
  3
ten
360
14C8
  3
TENJYOU
360
14C9
  3
TENJYOUNAI
360
14CA
  3
test
360
14CB
  3
text
360
14CC
  3
thaw
360
14CD
  3
TITL
360
14CE
  3
tnjyou
360
14CF
  3
tori
360
14D0
  3
TORISHIN
360
14D1
  3
tr
360
14D2
  3
TSIN
360
14D3
  3
TXT
360
14D4
  3
UNFREEZ
360
14D5
  3
UNROCK
360
14D6
  3
wada
360
14D7
  3
waku
360
14D8
  3
X
360
14D9
  3
X(敷地)を表示
360
14DA
  3
xref
360
14DB
  3
YAJI
360
14DC
  3
yellow
360
14DD
  3
YUKA
360
14DE
  3
yその他
360
14DF
  3
Z
360
14E0
  3
ZATU
360
14E1
  3
z図枠
360
14E2
  3
к
360
14E3
  3
перегородки
360
14E4
  3
イベント給水
360
14E5
  3
ガラス
360
14E6
  3
キ-プラン
360
14E7
  3
キープラン
360
14E8
  3
さーくる
360
14E9
  3
シェルター
360
14EA
  3
すべてに反映
360
14EB
  3
スロープ
360
14EC
  3
タイル割付平面図
360
14ED
  3
ﾃｷｽﾄのみ表示
360
14EE
  3
ハッチング
360
14EF
  3
フリーズ
360
14F0
  3
フリーズof
360
14F1
  3
ﾌﾘｰｽﾞ画層非表示
360
14F2
  3
ﾌﾘｰｽﾞ画面非表示
360
14F3
  3
ﾌﾘｰｽﾞ解除
360
14F4
  3
フリーズ解除
360
14F5
  3
ﾌﾟﾚｾﾞﾝ枠
360
14F6
  3
マーク
360
14F7
  3
ﾒｲﾝﾌﾟﾗｻﾞ
360
14F8
  3
レベル
360
14F9
  3
ロック
360
14FA
  3
一括非表示
360
14FB
  3
一般図
360
14FC
  3
印刷
360
14FD
  3
荏原機器
360
14FE
  3
荏原機器基礎
360
14FF
  3
衛生設備図
360
1500
  3
黄色
360
1501
  3
下階
360
1502
  3
下地
360
1503
  3
外構
360
1504
  3
外部参照－建築
360
1505
  3
外部参照除く
360
1506
  3
割り付け平面図
360
1507
  3
割付平面図
360
1508
  3
潅水平面
360
1509
  3
基
360
150A
  3
基準
360
150B
  3
基準階
360
150C
  3
基礎OFF
360
150D
  3
基礎伏
360
150E
  3
基礎伏図
360
150F
  3
基盤改良平面図
360
1510
  3
既存杭
360
1511
  3
機器
360
1512
  3
機器基礎
360
1513
  3
記号
360
1514
  3
給水設備平面図
360
1515
  3
給水平面
360
1516
  3
区画
360
1517
  3
躯体
360
1518
  3
躯体図
360
1519
  3
空調jv
360
151A
  3
空調設備図
360
151B
  3
郡川
360
151C
  3
型枠計画図
360
151D
  3
計画高平面図
360
151E
  3
計画平面
360
151F
  3
計画平面図
360
1520
  3
劇場ﾌﾟﾗｻﾞ
360
1521
  3
劇場棟
360
1522
  3
建具
360
1523
  3
建築接地図
360
1524
  3
見上げ
360
1525
  3
現在非表示画層
360
1526
  3
光天井
360
1527
  3
公園
360
1528
  3
工事区分図
360
1529
  3
工事区分図AB
360
152A
  3
工事区分図CD
360
152B
  3
高さ
360
152C
  3
高木植栽平面
360
152D
  3
高木平面図
360
152E
  3
座席のみ
360
152F
  3
作業
360
1530
  3
参考
360
1531
  3
山止根切計画図
360
1532
  3
仕
360
1533
  3
仕上
360
1534
  3
仕上図
360
1535
  3
使用中
360
1536
  3
施設配置図
360
1537
  3
施設平面
360
1538
  3
施設平面図
360
1539
  3
紫
360
153A
  3
床伏図
360
153B
  3
昇降機
360
153C
  3
照明
360
153D
  3
照明Ｃ１
360
153E
  3
照明Ｃ２
360
153F
  3
照明配置図
360
1540
  3
詳細
360
1541
  3
詳細図
360
1542
  3
上階躯体図
360
1543
  3
植栽
360
1544
  3
植栽基盤平面
360
1545
  3
植栽現況
360
1546
  3
植栽高木AB
360
1547
  3
植栽高木CD
360
1548
  3
植栽低木AB
360
1549
  3
植栽低木ＣＤ
360
154A
  3
色番号8
360
154B
  3
申請用
360
154C
  3
芯
360
154D
  3
芯関係
360
154E
  3
水
360
154F
  3
水色
360
1550
  3
寸法
360
1551
  3
製作
360
1552
  3
製作-躯体
360
1553
  3
製作-建築
360
1554
  3
製作-昇降機
360
1555
  3
青
360
1556
  3
設備
360
1557
  3
設備プロット
360
1558
  3
全階平面図
360
1559
  3
総合仮設図
360
155A
  3
総合図
360
155B
  3
足場計画図
360
155C
  3
地下埋設
360
155D
  3
中野
360
155E
  3
低木植栽平面
360
155F
  3
低木平面図
360
1560
  3
鉄骨
360
1561
  3
鉄骨建方計画図
360
1562
  3
天井インサート図
360
1563
  3
天井総合図
360
1564
  3
天井伏図
360
1565
  3
天伏
360
1566
  3
電気設備図
360
1567
  3
土壌改良
360
1568
  3
土木計画平面図
360
1569
  3
道路
360
156A
  3
道路関係図
360
156B
  3
排水
360
156C
  3
排水設備平面図
360
156D
  3
排水平面
360
156E
  3
配管
360
156F
  3
非表示
360
1570
  3
非表示ﾚｲﾔｰ
360
1571
  3
表示
360
1572
  3
表示・非表示
360
1573
  3
表示2
360
1574
  3
分割枠
360
1575
  3
平面詳細図
360
1576
  3
平面図
360
1577
  3
平面総合図
360
1578
  3
変更分
360
1579
  3
舗装平面
360
157A
  3
舗装平面C1
360
157B
  3
舗装平面C2
360
157C
  3
舗装平面図
360
157D
  3
法規チェック－区画
360
157E
  3
法規チェック－範囲
360
157F
  3
鳳文字入力
360
1580
  3
防災
360
1581
  3
名称
360
1582
  3
面積
360
1583
  3
擁壁平面図
360
1584
  3
用途色塗
360
1585
  3
立面図
360
1586
  3
梁
360
1587
  3
緑
360
1588
  0
GROUP
  5
1B82
102
{ACAD_REACTORS
330
1A
102
}
330
1A
100
AcDbGroup
300

 70
     1
 71
     1
  0
GROUP
  5
1E7E
102
{ACAD_REACTORS
330
1A
102
}
330
1A
100
AcDbGroup
300

 70
     1
 71
     1
340
1E78
340
1E77
340
1E73
340
1E72
340
1E6E
340
1E6D
340
1E69
340
1E68
340
1E64
340
1E63
340
1E5F
340
1E5E
340
1E5A
340
1E59
340
1E55
340
1E54
340
1E50
340
1E4F
340
1E4B
340
1E4A
340
1E46
340
1E45
340
1E41
340
1E40
340
1E3C
340
1E3B
340
1E37
340
1E36
340
1E32
340
1E31
340
1E2D
340
1E2C
340
1E28
340
1E27
340
1E23
340
1E22
340
1E1E
340
1E1D
340
1E19
340
1E18
340
1E14
340
1E13
340
18C0
340
18C1
340
192B
340
19DF
340
1E44
340
1956
340
195F
340
19C5
340
1E43
340
1E42
340
1E3F
340
1E3E
340
1E3D
340
1E3A
340
1E39
340
1E38
340
1E35
340
1E33
340
195C
340
19C2
340
199B
340
1E7C
340
19BF
340
1E34
340
1E30
340
1E2F
340
1E2E
340
1E2B
340
1E2A
340
1E29
340
1E26
340
1E25
340
1E24
340
1975
340
197F
340
19A1
340
199E
340
1E21
340
1E20
340
1E1F
340
1E1C
340
1E1B
340
1E1A
340
1E17
340
1E16
340
1E15
340
1E6A
340
1E76
340
1E75
340
1E74
340
1E71
340
1E70
340
1E6F
340
1E6C
340
19A8
340
1998
340
1999
340
199A
340
19A3
340
19EB
340
19E8
340
19E2
340
1E6B
340
1E67
340
1E66
340
1E65
340
1E62
340
1E61
340
1E60
340
1E5D
340
1E5C
340
1E5B
340
19E5
340
19D8
340
1A0C
340
1E7B
340
1E7A
340
1E79
340
1E58
340
1E57
340
1E56
340
1E53
340
1E52
340
1E51
340
1A12
340
1A0F
340
1A09
340
1E4E
340
1E4D
340
1E4C
340
1E49
340
1E48
340
1E47
340
1A13
340
19D7
  0
GROUP
  5
20BC
102
{ACAD_REACTORS
330
1A
102
}
330
1A
100
AcDbGroup
300

 70
     1
 71
     1
340
208F
340
208E
340
208D
340
208C
340
20A7
340
20A5
340
20A8
340
20A9
340
20AC
340
20AB
340
20AD
340
20AF
340
20AE
340
20B0
340
20B1
340
20B2
340
20B3
340
20B4
340
20B5
340
20B6
340
20B7
340
20B8
340
20B9
340
20BA
340
20BB
  0
GROUP
  5
1B97
102
{ACAD_REACTORS
330
1A
102
}
330
1A
100
AcDbGroup
300

 70
     1
 71
     1
  0
GROUP
  5
1B9F
102
{ACAD_REACTORS
330
1A
102
}
330
1A
100
AcDbGroup
300

 70
     1
 71
     1
  0
GROUP
  5
1BA7
102
{ACAD_REACTORS
330
1A
102
}
330
1A
100
AcDbGroup
300

 70
     1
 71
     1
  0
GROUP
  5
1BAF
102
{ACAD_REACTORS
330
1A
102
}
330
1A
100
AcDbGroup
300

 70
     1
 71
     1
  0
GROUP
  5
1BB7
102
{ACAD_REACTORS
330
1A
102
}
330
1A
100
AcDbGroup
300

 70
     1
 71
     1
  0
GROUP
  5
1BBF
102
{ACAD_REACTORS
330
1A
102
}
330
1A
100
AcDbGroup
300

 70
     1
 71
     1
340
1BB8
340
1BBA
340
1BB9
340
1BBB
340
1BBC
340
1BBD
340
1BBE
  0
GROUP
  5
1BCC
102
{ACAD_REACTORS
330
1A
102
}
330
1A
100
AcDbGroup
300

 70
     1
 71
     1
340
1BC5
340
1BC7
340
1BC6
340
1BC8
340
1BC9
340
1BCA
340
1BCB
  0
GROUP
  5
1BD4
102
{ACAD_REACTORS
330
1A
102
}
330
1A
100
AcDbGroup
300

 70
     1
 71
     1
340
1BCE
340
1BCF
340
1BCD
340
1BD0
340
1BD1
340
1BD2
340
1BD3
  0
GROUP
  5
1BDC
102
{ACAD_REACTORS
330
1A
102
}
330
1A
100
AcDbGroup
300

 70
     1
 71
     1
340
1BD6
340
1BD5
340
1BD7
340
1BD8
340
1BD9
340
1BDA
340
1BDB
  0
GROUP
  5
225F
102
{ACAD_REACTORS
330
1A
102
}
330
1A
100
AcDbGroup
300

 70
     1
 71
     1
340
223F
340
223E
340
223D
  0
GROUP
  5
1BE4
102
{ACAD_REACTORS
330
1A
102
}
330
1A
100
AcDbGroup
300

 70
     1
 71
     1
340
1BDD
340
1BDE
340
1BDF
340
1BE0
340
1BE1
340
1BE2
340
1BE3
  0
GROUP
  5
1BEC
102
{ACAD_REACTORS
330
1A
102
}
330
1A
100
AcDbGroup
300

 70
     1
 71
     1
340
1BE7
340
1BE6
340
1BE5
340
1BE8
340
1BE9
340
1BEA
340
1BEB
  0
GROUP
  5
1BF4
102
{ACAD_REACTORS
330
1A
102
}
330
1A
100
AcDbGroup
300

 70
     1
 71
     1
340
1BED
340
1BEE
340
1BEF
340
1BF0
340
1BF1
340
1BF2
340
1BF3
  0
GROUP
  5
1C03
102
{ACAD_REACTORS
330
1A
102
}
330
1A
100
AcDbGroup
300

 70
     1
 71
     1
340
1B68
340
1C01
340
1BEF
340
1BEE
340
1BED
340
1BFB
340
1BD0
340
1BCF
340
1BCE
340
1BF8
340
1BCB
340
1BC6
340
1BC5
340
1BBC
340
1BBB
340
1BB8
340
1BF6
340
1BBE
340
1BB9
340
1BBD
340
1BF5
340
1B6C
340
1B6A
340
1B5B
340
1BCA
340
1BF7
340
1BBA
340
1BC9
340
1BC8
340
1BFA
340
1BF9
340
1BC7
340
1BD3
340
1BD2
340
1BCD
340
1BFF
340
1BFE
340
1BDF
340
1BDE
340
1BDD
340
1BD9
340
1BD8
340
1BD6
340
1BD1
340
1BFD
340
1BD5
340
1BDB
340
1BDA
340
1BFC
340
1BD7
340
1BE3
340
1BE2
340
1BE9
340
1BE8
340
1BE7
340
1BE1
340
1BE0
340
1C02
340
1C00
340
1BE6
340
1BE5
340
1BEB
340
1BEA
340
1BF3
340
1BF2
340
1B58
340
1876
340
1B69
340
1BF1
340
1BF0
340
1B54
340
193C
340
1923
340
1B57
340
1B55
340
1943
340
1942
340
1B59
340
1B56
340
1A7B
  0
GROUP
  5
1C09
102
{ACAD_REACTORS
330
1A
102
}
330
1A
100
AcDbGroup
300

 70
     1
 71
     1
340
1889
340
188A
340
188B
340
1886
340
1883
340
1884
340
1885
340
1882
340
188C
340
188D
340
188E
340
188F
340
1890
340
1881
340
1880
340
187F
340
187E
340
1850
340
1851
340
187D
340
184C
340
184D
340
1891
340
1892
340
1893
340
1C07
340
1A30
340
1A2E
340
1A3F
340
1A3A
340
1A3D
340
1A3C
340
1A3B
340
1A39
340
1A3E
340
1C06
340
1C08
340
1A4B
340
1A4A
340
1A49
340
1A48
340
1A4C
340
1A4D
340
1A40
340
1A4F
340
1A50
  0
GROUP
  5
1E10
102
{ACAD_REACTORS
330
1A
102
}
330
1A
100
AcDbGroup
300

 70
     1
 71
     1
340
189C
340
189B
340
189A
340
1899
340
1898
340
1897
340
1895
340
1896
340
1894
340
1829
340
182A
340
18A3
340
18A2
340
18A1
340
18A0
340
189F
340
1A8D
340
1A93
340
1A91
340
1A8C
340
1A8E
340
1E0F
340
1A8A
340
1A97
340
1E0E
340
1A92
340
1A9C
340
1A9B
340
1A9A
340
1A9D
  0
GROUP
  5
1E11
102
{ACAD_REACTORS
330
1A
102
}
330
1A
100
AcDbGroup
300

 70
     1
 71
     1
340
1830
340
182F
340
18D0
340
1A72
340
1A73
340
1A7D
340
1A89
340
1A90
340
1A88
  0
LAYOUT
  5
21
102
{ACAD_REACTORS
330
1E
102
}
330
1E
100
AcDbPlotSettings
  1

  2

  4

  6

 40
0.0
 41
0.0
 42
0.0
 43
0.0
 44
0.0
 45
0.0
 46
0.0
 47
0.0
 48
0.0
 49
0.0
140
0.0
141
0.0
142
1.0
143
1.0
 70
     0
 72
     0
 73
     0
 74
     0
  7

 75
     0
147
1.0
148
0.0
149
0.0
100
AcDbLayout
  1
Layout1
 70
     0
 71
     1
 10
0.0
 20
0.0
 11
12.0
 21
9.0
 12
0.0
 22
0.0
 32
0.0
 14
1.000000000000000E+20
 24
1.000000000000000E+20
 34
1.000000000000000E+20
 15
-1.000000000000000E+20
 25
-1.000000000000000E+20
 35
-1.000000000000000E+20
146
0.0
 13
0.0
 23
0.0
 33
0.0
 16
1.0
 26
0.0
 36
0.0
 17
0.0
 27
1.0
 37
0.0
 76
     0
330
B
  0
LAYOUT
  5
20
102
{ACAD_REACTORS
330
1E
102
}
330
1E
100
AcDbPlotSettings
  1

  2

  4

  6

 40
0.0
 41
0.0
 42
0.0
 43
0.0
 44
0.0
 45
0.0
 46
0.0
 47
0.0
 48
0.0
 49
0.0
140
0.0
141
0.0
142
1.0
143
1.0
 70
  1024
 72
     0
 73
     0
 74
     0
  7

 75
     0
147
1.0
148
0.0
149
0.0
100
AcDbLayout
  1
Model
 70
     0
 71
     0
 10
0.0
 20
0.0
 11
0.0
 21
0.0
 12
0.0
 22
0.0
 32
0.0
 14
0.0
 24
0.0
 34
0.0
 15
0.0
 25
0.0
 35
0.0
146
0.0
 13
0.0
 23
0.0
 33
0.0
 16
0.0
 26
0.0
 36
0.0
 17
0.0
 27
0.0
 37
0.0
 76
     0
330
A
  0
MLINESTYLE
  5
1C
102
{ACAD_REACTORS
330
1B
102
}
330
1B
100
AcDbMlineStyle
  2
STANDARD
 70
     0
  3

 62
     0
 51
90.0
 52
90.0
 71
     2
 49
0.5
 62
   256
  6
BYLAYER
 49
-0.5
 62
   256
  6
BYLAYER
  0
ACDBPLACEHOLDER
  5
1D
102
{ACAD_REACTORS
330
1F
102
}
330
1F
  0
XRECORD
  5
1353
102
{ACAD_REACTORS
330
1352
102
}
330
1352
100
AcDbXrecord
280
     1
  1
-100
  1
*-100
  1
*
  1
*
 70
     0
  1
*
  1
*
  0
XRECORD
  5
1354
102
{ACAD_REACTORS
330
1352
102
}
330
1352
100
AcDbXrecord
280
     1
  1
-50
  1
*-50
  1
*
  1
*
 70
     0
  1
*
  1
*
  0
XRECORD
  5
1355
102
{ACAD_REACTORS
330
1352
102
}
330
1352
100
AcDbXrecord
280
     1
  1
-ben
  1
ben*
  1
*
  1
*
 70
     0
  1
*
  1
*
  0
XRECORD
  5
1356
102
{ACAD_REACTORS
330
1352
102
}
330
1352
100
AcDbXrecord
280
     1
  1
-H
  1
00*,01*,02*,05*,1*,2*,3*,4*,5*,6*,8*
  1
*
  1
*
 70
     0
  1
*
  1
*
  0
XRECORD
  5
1357
102
{ACAD_REACTORS
330
1352
102
}
330
1352
100
AcDbXrecord
280
     1
  1
-T
  1
00*,01*,03*,05*,1*,20*,21*,22*,23*,24*,25*,26*,27*,29*,2a*,3*,4*,7*,9*
  1
*
  1
*
 70
     0
  1
*
  1
*
  0
XRECORD
  5
1358
102
{ACAD_REACTORS
330
1352
102
}
330
1352
100
AcDbXrecord
280
     1
  1
$
  1
*$0$*
  1
*
  1
*
 70
     0
  1
*
  1
*
  0
XRECORD
  5
1359
102
{ACAD_REACTORS
330
1352
102
}
330
1352
100
AcDbXrecord
280
     1
  1
$0$
  1
$0$*
  1
*
  1
*
 70
     0
  1
*
  1
*
  0
XRECORD
  5
135A
102
{ACAD_REACTORS
330
1352
102
}
330
1352
100
AcDbXrecord
280
     1
  1
0
  1
0*
  1
*
  1
*
 70
     0
  1
*
  1
*
  0
XRECORD
  5
135B
102
{ACAD_REACTORS
330
1352
102
}
330
1352
100
AcDbXrecord
280
     1
  1
0-
  1
0-*
  1
*
  1
*
 70
     0
  1
*
  1
*
  0
XRECORD
  5
135C
102
{ACAD_REACTORS
330
1352
102
}
330
1352
100
AcDbXrecord
280
     1
  1
00
  1
*-100
  1
*
  1
*
 70
     0
  1
*
  1
*
  0
XRECORD
  5
135D
102
{ACAD_REACTORS
330
1352
102
}
330
1352
100
AcDbXrecord
280
     1
  1
01
  1
0*a*
  1
*
  1
*
 70
     0
  1
*
  1
*
  0
XRECORD
  5
135E
102
{ACAD_REACTORS
330
1352
102
}
330
1352
100
AcDbXrecord
280
     1
  1
01KUTAI
  1
01KUTAI
  1
*
  1
*
 70
     0
  1
*
  1
*
  0
XRECORD
  5
135F
102
{ACAD_REACTORS
330
1352
102
}
330
1352
100
AcDbXrecord
280
     1
  1
01全体計画平面図
  1
00*,02*,0A*
  1
*
  1
*
 70
     0
  1
*
  1
*
  0
XRECORD
  5
1360
102
{ACAD_REACTORS
330
1352
102
}
330
1352
100
AcDbXrecord
280
     1
  1
02現況平面図
  1
00*,01*,0B*
  1
*
  1
*
 70
     0
  1
*
  1
*
  0
XRECORD
  5
1361
102
{ACAD_REACTORS
330
1352
102
}
330
1352
100
AcDbXrecord
280
     1
  1
03撤去平面図
  1
00*,01*,0C*
  1
*
  1
*
 70
     0
  1
*
  1
*
  0
XRECORD
  5
1362
102
{ACAD_REACTORS
330
1352
102
}
330
1352
100
AcDbXrecord
280
     1
  1
04造成平面図
  1
00*,02計*,0D*,03*,01*
  1
*
  1
*
 70
     0
  1
*
  1
*
  0
XRECORD
  5
1363
102
{ACAD_REACTORS
330
1352
102
}
330
1352
100
AcDbXrecord
280
     1
  1
05
  1
*05*
  1
*
  1
*
 70
     0
  1
*
  1
*
  0
XRECORD
  5
1364
102
{ACAD_REACTORS
330
1352
102
}
330
1352
100
AcDbXrecord
280
     1
  1
05施設平面図
  1
00*,02*,0E*,05*
  1
*
  1
*
 70
     0
  1
*
  1
*
  0
XRECORD
  5
1365
102
{ACAD_REACTORS
330
1352
102
}
330
1352
100
AcDbXrecord
280
     1
  1
06
  1
06*
  1
*
  1
*
 70
     0
  1
*
  1
*
  0
XRECORD
  5
1366
102
{ACAD_REACTORS
330
1352
102
}
330
1352
100
AcDbXrecord
280
     1
  1
06siki
  1
06*siki*,sikiti,00waku,*|*
  1
*
  1
*
 70
     0
  1
*
  1
*
  0
XRECORD
  5
1367
102
{ACAD_REACTORS
330
1352
102
}
330
1352
100
AcDbXrecord
280
     1
  1
06siki2
  1
06*siki*,sikiti,00waku,*|*
  1
*
  1
*
 70
     0
  1
*
  1
*
  0
XRECORD
  5
1368
102
{ACAD_REACTORS
330
1352
102
}
330
1352
100
AcDbXrecord
280
     1
  1
06排水平面図
  1
00*,02*,0F*
  1
*
  1
*
 70
     0
  1
*
  1
*
  0
XRECORD
  5
1369
102
{ACAD_REACTORS
330
1352
102
}
330
1352
100
AcDbXrecord
280
     1
  1
07
  1
07*
  1
*
  1
*
 70
     0
  1
*
  1
*
  0
XRECORD
  5
136A
102
{ACAD_REACTORS
330
1352
102
}
330
1352
100
AcDbXrecord
280
     1
  1
07給水平面図
  1
00*,02*,0G*
  1
*
  1
*
 70
     0
  1
*
  1
*
  0
XRECORD
  5
136B
102
{ACAD_REACTORS
330
1352
102
}
330
1352
100
AcDbXrecord
280
     1
  1
0割付平面図
  1
*わ*
  1
*
  1
*
 70
     0
  1
*
  1
*
  0
XRECORD
  5
136C
102
{ACAD_REACTORS
330
1352
102
}
330
1352
100
AcDbXrecord
280
     1
  1
0潅水平面
  1
*三*
  1
*
  1
*
 70
     0
  1
*
  1
*
  0
XRECORD
  5
136D
102
{ACAD_REACTORS
330
1352
102
}
330
1352
100
AcDbXrecord
280
     1
  1
0計画平面
  1
*け*
  1
*
  1
*
 70
     0
  1
*
  1
*
  0
XRECORD
  5
136E
102
{ACAD_REACTORS
330
1352
102
}
330
1352
100
AcDbXrecord
280
     1
  1
0高木植栽
  1
*こ*
  1
*
  1
*
 70
     0
  1
*
  1
*
  0
XRECORD
  5
136F
102
{ACAD_REACTORS
330
1352
102
}
330
1352
100
AcDbXrecord
280
     1
  1
0施設平面
  1
*し*
  1
*
  1
*
 70
     0
  1
*
  1
*
  0
XRECORD
  5
1370
102
{ACAD_REACTORS
330
1352
102
}
330
1352
100
AcDbXrecord
280
     1
  1
0床内
  1
FI-*
  1
*
  1
*
 70
     0
  1
*
  1
*
  0
XRECORD
  5
1371
102
{ACAD_REACTORS
330
1352
102
}
330
1352
100
AcDbXrecord
280
     1
  1
0床壁
  1
FW*
  1
*
  1
*
 70
     0
  1
*
  1
*
  0
XRECORD
  5
1372
102
{ACAD_REACTORS
330
1352
102
}
330
1352
100
AcDbXrecord
280
     1
  1
0照明配置図
  1
*め*
  1
*
  1
*
 70
     0
  1
*
  1
*
  0
XRECORD
  5
1373
102
{ACAD_REACTORS
330
1352
102
}
330
1352
100
AcDbXrecord
280
     1
  1
0詳細図
  1
*-d
  1
*
  1
*
 70
     0
  1
*
  1
*
  0
XRECORD
  5
1374
102
{ACAD_REACTORS
330
1352
102
}
330
1352
100
AcDbXrecord
280
     1
  1
0植栽基盤
  1
*ど*
  1
*
  1
*
 70
     0
  1
*
  1
*
  0
XRECORD
  5
1375
102
{ACAD_REACTORS
330
1352
102
}
330
1352
100
AcDbXrecord
280
     1
  1
0全体工区区分図
  1
*ぜ*
  1
*
  1
*
 70
     0
  1
*
  1
*
  0
XRECORD
  5
1376
102
{ACAD_REACTORS
330
1352
102
}
330
1352
100
AcDbXrecord
280
     1
  1
0総合図off
  1
*-s
  1
*
  1
*
 70
     0
  1
*
  1
*
  0
XRECORD
  5
1377
102
{ACAD_REACTORS
330
1352
102
}
330
1352
100
AcDbXrecord
280
     1
  1
0総合図枠
  1
*-2
  1
*
  1
*
 70
     0
  1
*
  1
*
  0
XRECORD
  5
1378
102
{ACAD_REACTORS
330
1352
102
}
330
1352
100
AcDbXrecord
280
     1
  1
0低木
  1
*て*
  1
*
  1
*
 70
     0
  1
*
  1
*
  0
XRECORD
  5
1379
102
{ACAD_REACTORS
330
1352
102
}
330
1352
100
AcDbXrecord
280
     1
  1
0排水平面
  1
*は*
  1
*
  1
*
 70
     0
  1
*
  1
*
  0
XRECORD
  5
137A
102
{ACAD_REACTORS
330
1352
102
}
330
1352
100
AcDbXrecord
280
     1
  1
0平詳枠
  1
*-1
  1
*
  1
*
 70
     0
  1
*
  1
*
  0
XRECORD
  5
137B
102
{ACAD_REACTORS
330
1352
102
}
330
1352
100
AcDbXrecord
280
     1
  1
0擁壁平面図
  1
*よ*
  1
*
  1
*
 70
     0
  1
*
  1
*
  0
XRECORD
  5
137C
102
{ACAD_REACTORS
330
1352
102
}
330
1352
100
AcDbXrecord
280
     1
  1
1
  1
*
  1
*
  1
*
 70
     0
  1
*
  1
*
  0
XRECORD
  5
137D
102
{ACAD_REACTORS
330
1352
102
}
330
1352
100
AcDbXrecord
280
     1
  1
10
  1
*
  1
10
  1
*
 70
     0
  1
*
  1
*
  0
XRECORD
  5
137E
102
{ACAD_REACTORS
330
1352
102
}
330
1352
100
AcDbXrecord
280
     1
  1
100
  1
50*
  1
*
  1
*
 70
     0
  1
*
  1
*
  0
XRECORD
  5
137F
102
{ACAD_REACTORS
330
1352
102
}
330
1352
100
AcDbXrecord
280
     1
  1
10植栽平面図
  1
00*,02*,0I*
  1
*
  1
*
 70
     0
  1
*
  1
*
  0
XRECORD
  5
1380
102
{ACAD_REACTORS
330
1352
102
}
330
1352
100
AcDbXrecord
280
     1
  1
11
  1
11*
  1
*
  1
*
 70
     0
  1
*
  1
*
  0
XRECORD
  5
1381
102
{ACAD_REACTORS
330
1352
102
}
330
1352
100
AcDbXrecord
280
     1
  1
1111
  1
*-50
  1
*
  1
*
 70
     0
  1
*
  1
*
  0
XRECORD
  5
1382
102
{ACAD_REACTORS
330
1352
102
}
330
1352
100
AcDbXrecord
280
     1
  1
11寸法図
  1
00*,02*,0K*,03*
  1
*
  1
*
 70
     0
  1
*
  1
*
  0
XRECORD
  5
1383
102
{ACAD_REACTORS
330
1352
102
}
330
1352
100
AcDbXrecord
280
     1
  1
12
  1
*
  1
*12
  1
*
 70
     0
  1
*
  1
*
  0
XRECORD
  5
1384
102
{ACAD_REACTORS
330
1352
102
}
330
1352
100
AcDbXrecord
280
     1
  1
19
  1
*19*
  1
*
  1
*
 70
     0
  1
*
  1
*
  0
XRECORD
  5
1385
102
{ACAD_REACTORS
330
1352
102
}
330
1352
100
AcDbXrecord
280
     1
  1
１Ｆ床伏OFF
  1
-*
  1
*
  1
*
 70
     0
  1
*
  1
*
  0
XRECORD
  5
1386
102
{ACAD_REACTORS
330
1352
102
}
330
1352
100
AcDbXrecord
280
     1
  1
1階
  1
*1階*
  1
*
  1
*
 70
     0
  1
*
  1
*
  0
XRECORD
  5
1387
102
{ACAD_REACTORS
330
1352
102
}
330
1352
100
AcDbXrecord
280
     1
  1
1床
  1
F-*
  1
*
  1
*
 70
     0
  1
*
  1
*
  0
XRECORD
  5
1388
102
{ACAD_REACTORS
330
1352
102
}
330
1352
100
AcDbXrecord
280
     1
  1
1芯
  1
1*
  1
*
  1
*
 70
     0
  1
*
  1
*
  0
XRECORD
  5
1389
102
{ACAD_REACTORS
330
1352
102
}
330
1352
100
AcDbXrecord
280
     1
  1
1芯線
  1
1*
  1
*
  1
*
 70
     0
  1
*
  1
*
  0
XRECORD
  5
138A
102
{ACAD_REACTORS
330
1352
102
}
330
1352
100
AcDbXrecord
280
     1
  1
20
  1
*20
  1
*
  1
*
 70
     0
  1
*
  1
*
  0
XRECORD
  5
138B
102
{ACAD_REACTORS
330
1352
102
}
330
1352
100
AcDbXrecord
280
     1
  1
21
  1
*
  1
21
  1
*
 70
     0
  1
*
  1
*
  0
XRECORD
  5
138C
102
{ACAD_REACTORS
330
1352
102
}
330
1352
100
AcDbXrecord
280
     1
  1
250
  1
*250*
  1
*
  1
*
 70
     0
  1
*
  1
*
  0
XRECORD
  5
138D
102
{ACAD_REACTORS
330
1352
102
}
330
1352
100
AcDbXrecord
280
     1
  1
2fmiage
  1
*
  1
*
  1
*
 70
     1
  1
*
  1
*
  0
XRECORD
  5
138E
102
{ACAD_REACTORS
330
1352
102
}
330
1352
100
AcDbXrecord
280
     1
  1
2躯体
  1
2*
  1
*
  1
*
 70
     0
  1
*
  1
*
  0
XRECORD
  5
138F
102
{ACAD_REACTORS
330
1352
102
}
330
1352
100
AcDbXrecord
280
     1
  1
2断面
  1
2*
  1
*
  1
*
 70
     0
  1
*
  1
*
  0
XRECORD
  5
1390
102
{ACAD_REACTORS
330
1352
102
}
330
1352
100
AcDbXrecord
280
     1
  1
2壁
  1
W-*
  1
*
  1
*
 70
     0
  1
*
  1
*
  0
XRECORD
  5
1391
102
{ACAD_REACTORS
330
1352
102
}
330
1352
100
AcDbXrecord
280
     1
  1
300
  1
*300*
  1
*
  1
*
 70
     0
  1
*
  1
*
  0
XRECORD
  5
1392
102
{ACAD_REACTORS
330
1352
102
}
330
1352
100
AcDbXrecord
280
     1
  1
32
  1
*
  1
32
  1
*
 70
     0
  1
*
  1
*
  0
XRECORD
  5
1393
102
{ACAD_REACTORS
330
1352
102
}
330
1352
100
AcDbXrecord
280
     1
  1
333
  1
*
  1
*
  1
*
 70
    12
  1
*
  1
*
  0
XRECORD
  5
1394
102
{ACAD_REACTORS
330
1352
102
}
330
1352
100
AcDbXrecord
280
     1
  1
37
  1
*37
  1
*
  1
*
 70
     0
  1
*
  1
*
  0
XRECORD
  5
1395
102
{ACAD_REACTORS
330
1352
102
}
330
1352
100
AcDbXrecord
280
     1
  1
3D
  1
3D*
  1
*
  1
*
 70
     0
  1
*
  1
*
  0
XRECORD
  5
1396
102
{ACAD_REACTORS
330
1352
102
}
330
1352
100
AcDbXrecord
280
     1
  1
3開口
  1
3*
  1
*
  1
*
 70
     0
  1
*
  1
*
  0
XRECORD
  5
1397
102
{ACAD_REACTORS
330
1352
102
}
330
1352
100
AcDbXrecord
280
     1
  1
3見掛り
  1
3*
  1
*
  1
*
 70
     0
  1
*
  1
*
  0
XRECORD
  5
1398
102
{ACAD_REACTORS
330
1352
102
}
330
1352
100
AcDbXrecord
280
     1
  1
3天井内
  1
CI-*
  1
*
  1
*
 70
     0
  1
*
  1
*
  0
XRECORD
  5
1399
102
{ACAD_REACTORS
330
1352
102
}
330
1352
100
AcDbXrecord
280
     1
  1
41
  1
41
  1
*
  1
*
 70
     1
  1
*
  1
*
  0
XRECORD
  5
139A
102
{ACAD_REACTORS
330
1352
102
}
330
1352
100
AcDbXrecord
280
     1
  1
4仕上げ
  1
4*
  1
*
  1
*
 70
     0
  1
*
  1
*
  0
XRECORD
  5
139B
102
{ACAD_REACTORS
330
1352
102
}
330
1352
100
AcDbXrecord
280
     1
  1
4天井
  1
C-*
  1
*
  1
*
 70
     0
  1
*
  1
*
  0
XRECORD
  5
139C
102
{ACAD_REACTORS
330
1352
102
}
330
1352
100
AcDbXrecord
280
     1
  1
5
  1
*5
  1
*
  1
*
 70
     1
  1
*
  1
*
  0
XRECORD
  5
139D
102
{ACAD_REACTORS
330
1352
102
}
330
1352
100
AcDbXrecord
280
     1
  1
50
  1
*-50
  1
*
  1
*
 70
     0
  1
*
  1
*
  0
XRECORD
  5
139E
102
{ACAD_REACTORS
330
1352
102
}
330
1352
100
AcDbXrecord
280
     1
  1
50off
  1
50*
  1
*
  1
*
 70
     0
  1
*
  1
*
  0
XRECORD
  5
139F
102
{ACAD_REACTORS
330
1352
102
}
330
1352
100
AcDbXrecord
280
     1
  1
51-52
  1
5*
  1
*
  1
*
 70
     0
  1
*
  1
*
  0
XRECORD
  5
13A0
102
{ACAD_REACTORS
330
1352
102
}
330
1352
100
AcDbXrecord
280
     1
  1
555
  1
*
  1
*
  1
*
 70
     1
  1
*
  1
*
  0
XRECORD
  5
13A1
102
{ACAD_REACTORS
330
1352
102
}
330
1352
100
AcDbXrecord
280
     1
  1
5寸法
  1
5*
  1
*
  1
*
 70
     0
  1
*
  1
*
  0
XRECORD
  5
13A2
102
{ACAD_REACTORS
330
1352
102
}
330
1352
100
AcDbXrecord
280
     1
  1
5文字
  1
*TXT*
  1
*
  1
*
 70
     0
  1
*
  1
*
  0
XRECORD
  5
13A3
102
{ACAD_REACTORS
330
1352
102
}
330
1352
100
AcDbXrecord
280
     1
  1
6
  1
*
  1
6
  1
*
 70
     0
  1
*
  1
*
  0
XRECORD
  5
13A4
102
{ACAD_REACTORS
330
1352
102
}
330
1352
100
AcDbXrecord
280
     1
  1
66-躯体図
  1
0,Defpoints,HOJO,雲マーク,000*,010*,020*,1*,400*,470*,520*,570*,08*
  1
*
  1
*
 70
     0
  1
*
  1
*
  0
XRECORD
  5
13A5
102
{ACAD_REACTORS
330
1352
102
}
330
1352
100
AcDbXrecord
280
     1
  1
66躯体図
  1
0,Defpoints,HOJO,雲マーク,000*,010*,020*,1*,400*,470*,520*,570*,08*,6*
  1
*
  1
*
 70
     0
  1
*
  1
*
  0
XRECORD
  5
13A6
102
{ACAD_REACTORS
330
1352
102
}
330
1352
100
AcDbXrecord
280
     1
  1
6記号
  1
6*
  1
*
  1
*
 70
     0
  1
*
  1
*
  0
XRECORD
  5
13A7
102
{ACAD_REACTORS
330
1352
102
}
330
1352
100
AcDbXrecord
280
     1
  1
6文字
  1
6*
  1
*
  1
*
 70
     0
  1
*
  1
*
  0
XRECORD
  5
13A8
102
{ACAD_REACTORS
330
1352
102
}
330
1352
100
AcDbXrecord
280
     1
  1
6保留
  1
*_a
  1
*
  1
*
 70
     0
  1
*
  1
*
  0
XRECORD
  5
13A9
102
{ACAD_REACTORS
330
1352
102
}
330
1352
100
AcDbXrecord
280
     1
  1
767
  1
*
  1
*
  1
*
 70
     0
  1
*
  1
*
  0
XRECORD
  5
13AA
102
{ACAD_REACTORS
330
1352
102
}
330
1352
100
AcDbXrecord
280
     1
  1
767SE13-0...$
  1
*
  1
*
  1
*
 70
     0
  1
*
  1
*
  0
XRECORD
  5
13AB
102
{ACAD_REACTORS
330
1352
102
}
330
1352
100
AcDbXrecord
280
     1
  1
767SE13-07-99$0$
  1
*
  1
*
  1
*
 70
     0
  1
*
  1
*
  0
XRECORD
  5
13AC
102
{ACAD_REACTORS
330
1352
102
}
330
1352
100
AcDbXrecord
280
     1
  1
7記号
  1
7*
  1
*
  1
*
 70
     0
  1
*
  1
*
  0
XRECORD
  5
13AD
102
{ACAD_REACTORS
330
1352
102
}
330
1352
100
AcDbXrecord
280
     1
  1
8
  1
*
  1
8
  1
*
 70
    12
  1
*
  1
*
  0
XRECORD
  5
13AE
102
{ACAD_REACTORS
330
1352
102
}
330
1352
100
AcDbXrecord
280
     1
  1
8寸法
  1
8*
  1
*
  1
*
 70
     0
  1
*
  1
*
  0
XRECORD
  5
13AF
102
{ACAD_REACTORS
330
1352
102
}
330
1352
100
AcDbXrecord
280
     1
  1
8設備
  1
8*
  1
*
  1
*
 70
     0
  1
*
  1
*
  0
XRECORD
  5
13B0
102
{ACAD_REACTORS
330
1352
102
}
330
1352
100
AcDbXrecord
280
     1
  1
9文字
  1
9*
  1
*
  1
*
 70
     0
  1
*
  1
*
  0
XRECORD
  5
13B1
102
{ACAD_REACTORS
330
1352
102
}
330
1352
100
AcDbXrecord
280
     1
  1
9目地
  1
9*
  1
*
  1
*
 70
     0
  1
*
  1
*
  0
XRECORD
  5
13B2
102
{ACAD_REACTORS
330
1352
102
}
330
1352
100
AcDbXrecord
280
     1
  1
A
  1
A*
  1
*
  1
*
 70
     0
  1
*
  1
*
  0
XRECORD
  5
13B3
102
{ACAD_REACTORS
330
1352
102
}
330
1352
100
AcDbXrecord
280
     1
  1
A-
  1
A-*
  1
*
  1
*
 70
     0
  1
*
  1
*
  0
XRECORD
  5
13B4
102
{ACAD_REACTORS
330
1352
102
}
330
1352
100
AcDbXrecord
280
     1
  1
A(枠･表)を表示
  1
A*
  1
*
  1
*
 70
     0
  1
*
  1
*
  0
XRECORD
  5
13B5
102
{ACAD_REACTORS
330
1352
102
}
330
1352
100
AcDbXrecord
280
     1
  1
A01
  1
*A01*
  1
*
  1
*
 70
     0
  1
*
  1
*
  0
XRECORD
  5
13B6
102
{ACAD_REACTORS
330
1352
102
}
330
1352
100
AcDbXrecord
280
     1
  1
A1.DEMO-KEY NOTE
  1
*-D-*
  1
*
  1
*
 70
     0
  1
*
  1
*
  0
XRECORD
  5
13B7
102
{ACAD_REACTORS
330
1352
102
}
330
1352
100
AcDbXrecord
280
     1
  1
A2. CONS-KEY NOTE
  1
*-C-*
  1
*
  1
*
 70
     0
  1
*
  1
*
  0
XRECORD
  5
13B8
102
{ACAD_REACTORS
330
1352
102
}
330
1352
100
AcDbXrecord
280
     1
  1
A21
  1
*A21*
  1
*
  1
*
 70
     0
  1
*
  1
*
  0
XRECORD
  5
13B9
102
{ACAD_REACTORS
330
1352
102
}
330
1352
100
AcDbXrecord
280
     1
  1
A3
  1
*A3
  1
*
  1
*
 70
     0
  1
*
  1
*
  0
XRECORD
  5
13BA
102
{ACAD_REACTORS
330
1352
102
}
330
1352
100
AcDbXrecord
280
     1
  1
A3. RCP-LAYER
  1
*R-SCH*
  1
*
  1
*
 70
     0
  1
*
  1
*
  0
XRECORD
  5
13BB
102
{ACAD_REACTORS
330
1352
102
}
330
1352
100
AcDbXrecord
280
     1
  1
A3D. RCP_DEMO-KEY NOTE
  1
*-RD-*
  1
*
  1
*
 70
     0
  1
*
  1
*
  0
XRECORD
  5
13BC
102
{ACAD_REACTORS
330
1352
102
}
330
1352
100
AcDbXrecord
280
     1
  1
A4. P&T- KEY NOTE
  1
*T-SCH*
  1
*
  1
*
 70
     0
  1
*
  1
*
  0
XRECORD
  5
13BD
102
{ACAD_REACTORS
330
1352
102
}
330
1352
100
AcDbXrecord
280
     1
  1
A4D. EL_DEMO-KEY NOTE
  1
*-ED-*
  1
*
  1
*
 70
     0
  1
*
  1
*
  0
XRECORD
  5
13BE
102
{ACAD_REACTORS
330
1352
102
}
330
1352
100
AcDbXrecord
280
     1
  1
A5. FINISH-KEY NOTE
  1
*-N-*
  1
*
  1
*
 70
     0
  1
*
  1
*
  0
XRECORD
  5
13BF
102
{ACAD_REACTORS
330
1352
102
}
330
1352
100
AcDbXrecord
280
     1
  1
A6. FURN-KEY NOTE
  1
*-F-*
  1
*
  1
*
 70
     0
  1
*
  1
*
  0
XRECORD
  5
13C0
102
{ACAD_REACTORS
330
1352
102
}
330
1352
100
AcDbXrecord
280
     1
  1
aa
  1
*aa*
  1
*
  1
*
 70
     0
  1
*
  1
*
  0
XRECORD
  5
13C1
102
{ACAD_REACTORS
330
1352
102
}
330
1352
100
AcDbXrecord
280
     1
  1
aaa
  1
*
  1
*
  1
*
 70
     0
  1
*
  1
*
  0
XRECORD
  5
13C2
102
{ACAD_REACTORS
330
1352
102
}
330
1352
100
AcDbXrecord
280
     1
  1
AB棟
  1
ＡＢ棟*
  1
*
  1
*
 70
     0
  1
*
  1
*
  0
XRECORD
  5
13C3
102
{ACAD_REACTORS
330
1352
102
}
330
1352
100
AcDbXrecord
280
     1
  1
ＡＢ棟
  1
ＡＢ棟*
  1
*
  1
*
 70
     0
  1
*
  1
*
  0
XRECORD
  5
13C4
102
{ACAD_REACTORS
330
1352
102
}
330
1352
100
AcDbXrecord
280
     1
  1
ACTIVE
  1
C.*
  1
*
  1
*
 70
     0
  1
*
  1
*
  0
XRECORD
  5
13C5
102
{ACAD_REACTORS
330
1352
102
}
330
1352
100
AcDbXrecord
280
     1
  1
ACTIVE2
  1
B-*
  1
*
  1
*
 70
     0
  1
*
  1
*
  0
XRECORD
  5
13C6
102
{ACAD_REACTORS
330
1352
102
}
330
1352
100
AcDbXrecord
280
     1
  1
ALC
  1
*ALC
  1
*
  1
*
 70
     0
  1
*
  1
*
  0
XRECORD
  5
13C7
102
{ACAD_REACTORS
330
1352
102
}
330
1352
100
AcDbXrecord
280
     1
  1
ALL
  1
*
  1
*
  1
*
 70
     3
  1
*
  1
*
  0
XRECORD
  5
13C8
102
{ACAD_REACTORS
330
1352
102
}
330
1352
100
AcDbXrecord
280
     1
  1
all選択
  1
*
  1
*
  1
*
 70
     0
  1
*
  1
*
  0
XRECORD
  5
13C9
102
{ACAD_REACTORS
330
1352
102
}
330
1352
100
AcDbXrecord
280
     1
  1
AMENAGEMENT
  1
*
  1
*
  1
*
 70
    13
  1
*
  1
*
  0
XRECORD
  5
13CA
102
{ACAD_REACTORS
330
1352
102
}
330
1352
100
AcDbXrecord
280
     1
  1
AQ
  1
AQ*
  1
*
  1
*
 70
     0
  1
*
  1
*
  0
XRECORD
  5
13CB
102
{ACAD_REACTORS
330
1352
102
}
330
1352
100
AcDbXrecord
280
     1
  1
ARBOL
  1
*ARBOL*
  1
*
  1
*
 70
     0
  1
*
  1
*
  0
XRECORD
  5
13CC
102
{ACAD_REACTORS
330
1352
102
}
330
1352
100
AcDbXrecord
280
     1
  1
AREA
  1
*AREA*
  1
*
  1
*
 70
     0
  1
*
  1
*
  0
XRECORD
  5
13CD
102
{ACAD_REACTORS
330
1352
102
}
330
1352
100
AcDbXrecord
280
     1
  1
AREA-SG
  1
*6AREA-SG
  1
6
  1
*
 70
     0
  1
*
  1
*
  0
XRECORD
  5
13CE
102
{ACAD_REACTORS
330
1352
102
}
330
1352
100
AcDbXrecord
280
     1
  1
AS1
  1
*AS1
  1
*
  1
*
 70
     0
  1
*
  1
*
  0
XRECORD
  5
13CF
102
{ACAD_REACTORS
330
1352
102
}
330
1352
100
AcDbXrecord
280
     1
  1
aハッチング
  1
a*
  1
*
  1
*
 70
     0
  1
*
  1
*
  0
XRECORD
  5
13D0
102
{ACAD_REACTORS
330
1352
102
}
330
1352
100
AcDbXrecord
280
     1
  1
A空調
  1
*
  1
*
  1
*
 70
     0
  1
*
  1
KUCYOU
  0
XRECORD
  5
13D1
102
{ACAD_REACTORS
330
1352
102
}
330
1352
100
AcDbXrecord
280
     1
  1
B
  1
B*
  1
*
  1
*
 70
     0
  1
*
  1
*
  0
XRECORD
  5
13D2
102
{ACAD_REACTORS
330
1352
102
}
330
1352
100
AcDbXrecord
280
     1
  1
B(基準)を表示
  1
B*
  1
*
  1
*
 70
     0
  1
*
  1
*
  0
XRECORD
  5
13D3
102
{ACAD_REACTORS
330
1352
102
}
330
1352
100
AcDbXrecord
280
     1
  1
B2
  1
B2*
  1
*
  1
*
 70
     1
  1
*
  1
*
  0
XRECORD
  5
13D4
102
{ACAD_REACTORS
330
1352
102
}
330
1352
100
AcDbXrecord
280
     1
  1
B3
  1
B3*
  1
*
  1
*
 70
     0
  1
*
  1
*
  0
XRECORD
  5
13D5
102
{ACAD_REACTORS
330
1352
102
}
330
1352
100
AcDbXrecord
280
     1
  1
BAL
  1
*BAL
  1
*
  1
*
 70
     0
  1
*
  1
*
  0
XRECORD
  5
13D6
102
{ACAD_REACTORS
330
1352
102
}
330
1352
100
AcDbXrecord
280
     1
  1
baru
  1
*51A
  1
*
  1
*
 70
     0
  1
*
  1
*
  0
XRECORD
  5
13D7
102
{ACAD_REACTORS
330
1352
102
}
330
1352
100
AcDbXrecord
280
     1
  1
baru2
  1
*AS1A
  1
*
  1
*
 70
     0
  1
*
  1
*
  0
XRECORD
  5
13D8
102
{ACAD_REACTORS
330
1352
102
}
330
1352
100
AcDbXrecord
280
     1
  1
BASE
  1
*I4BASE
  1
*
  1
*
 70
     0
  1
*
  1
*
  0
XRECORD
  5
13D9
102
{ACAD_REACTORS
330
1352
102
}
330
1352
100
AcDbXrecord
280
     1
  1
bb
  1
rogarpissu,block
  1
*
  1
*
 70
     0
  1
*
  1
*
  0
XRECORD
  5
13DA
102
{ACAD_REACTORS
330
1352
102
}
330
1352
100
AcDbXrecord
280
     1
  1
bbbb
  1
prova
  1
*
  1
*
 70
    55
  1
*
  1
*
  0
XRECORD
  5
13DB
102
{ACAD_REACTORS
330
1352
102
}
330
1352
100
AcDbXrecord
280
     1
  1
beam
  1
*beam*
  1
*
  1
*
 70
     0
  1
*
  1
*
  0
XRECORD
  5
13DC
102
{ACAD_REACTORS
330
1352
102
}
330
1352
100
AcDbXrecord
280
     1
  1
blocchi
  1
mqa*
  1
*
  1
*
 70
     0
  1
*
  1
*
  0
XRECORD
  5
13DD
102
{ACAD_REACTORS
330
1352
102
}
330
1352
100
AcDbXrecord
280
     1
  1
blue
  1
*
  1
blue
  1
*
 70
     0
  1
*
  1
*
  0
XRECORD
  5
13DE
102
{ACAD_REACTORS
330
1352
102
}
330
1352
100
AcDbXrecord
280
     1
  1
BSM
  1
*BSM*
  1
*
  1
*
 70
     0
  1
*
  1
*
  0
XRECORD
  5
13DF
102
{ACAD_REACTORS
330
1352
102
}
330
1352
100
AcDbXrecord
280
     1
  1
b階段
  1
b*
  1
*
  1
*
 70
     0
  1
*
  1
*
  0
XRECORD
  5
13E0
102
{ACAD_REACTORS
330
1352
102
}
330
1352
100
AcDbXrecord
280
     1
  1
B電気
  1
*
  1
*
  1
*
 70
     0
  1
*
  1
DENKI
  0
XRECORD
  5
13E1
102
{ACAD_REACTORS
330
1352
102
}
330
1352
100
AcDbXrecord
280
     1
  1
c
  1
c*
  1
*
  1
*
 70
    61
  1
*
  1
*
  0
XRECORD
  5
13E2
102
{ACAD_REACTORS
330
1352
102
}
330
1352
100
AcDbXrecord
280
     1
  1
c-block
  1
c-*
  1
*
  1
*
 70
     0
  1
*
  1
*
  0
XRECORD
  5
13E3
102
{ACAD_REACTORS
330
1352
102
}
330
1352
100
AcDbXrecord
280
     1
  1
c-block-2
  1
c-*
  1
*
  1
*
 70
  1024
  1
*
  1
*
  0
XRECORD
  5
13E4
102
{ACAD_REACTORS
330
1352
102
}
330
1352
100
AcDbXrecord
280
     1
  1
C(寸･文･記)を表示
  1
C*
  1
*
  1
*
 70
     0
  1
*
  1
*
  0
XRECORD
  5
13E5
102
{ACAD_REACTORS
330
1352
102
}
330
1352
100
AcDbXrecord
280
     1
  1
cajetin
  1
caj*
  1
*
  1
*
 70
     0
  1
*
  1
*
  0
XRECORD
  5
13E6
102
{ACAD_REACTORS
330
1352
102
}
330
1352
100
AcDbXrecord
280
     1
  1
cc
  1
*
  1
*
  1
*
 70
     0
  1
*
  1
*
  0
XRECORD
  5
13E7
102
{ACAD_REACTORS
330
1352
102
}
330
1352
100
AcDbXrecord
280
     1
  1
CD06
  1
CD06*
  1
*
  1
*
 70
     0
  1
*
  1
*
  0
XRECORD
  5
13E8
102
{ACAD_REACTORS
330
1352
102
}
330
1352
100
AcDbXrecord
280
     1
  1
ＣＤ棟
  1
T15-*
  1
*
  1
*
 70
     0
  1
*
  1
*
  0
XRECORD
  5
13E9
102
{ACAD_REACTORS
330
1352
102
}
330
1352
100
AcDbXrecord
280
     1
  1
ceiling
  1
*ceiling*
  1
*
  1
*
 70
     0
  1
*
  1
*
  0
XRECORD
  5
13EA
102
{ACAD_REACTORS
330
1352
102
}
330
1352
100
AcDbXrecord
280
     1
  1
CEILINGS XREF
  1
*CE-SUSPENDED-CEILINGS
  1
*
  1
*
 70
     0
  1
*
  1
*
  0
XRECORD
  5
13EB
102
{ACAD_REACTORS
330
1352
102
}
330
1352
100
AcDbXrecord
280
     1
  1
CEL
  1
*
  1
*
  1
*
 70
     0
  1
*
  1
*
  0
XRECORD
  5
13EC
102
{ACAD_REACTORS
330
1352
102
}
330
1352
100
AcDbXrecord
280
     1
  1
che
  1
che*
  1
*
  1
*
 70
     0
  1
*
  1
*
  0
XRECORD
  5
13ED
102
{ACAD_REACTORS
330
1352
102
}
330
1352
100
AcDbXrecord
280
     1
  1
chika
  1
2躯体構造体点線
  1
211
  1
*
 70
     0
  1
*
  1
*
  0
XRECORD
  5
13EE
102
{ACAD_REACTORS
330
1352
102
}
330
1352
100
AcDbXrecord
280
     1
  1
CLG
  1
*CLG*
  1
*
  1
*
 70
     0
  1
*
  1
*
  0
XRECORD
  5
13EF
102
{ACAD_REACTORS
330
1352
102
}
330
1352
100
AcDbXrecord
280
     1
  1
COL
  1
*COL*
  1
*
  1
*
 70
     0
  1
*
  1
*
  0
XRECORD
  5
13F0
102
{ACAD_REACTORS
330
1352
102
}
330
1352
100
AcDbXrecord
280
     1
  1
cold beam
  1
*cold*
  1
*
  1
*
 70
     0
  1
*
  1
*
  0
XRECORD
  5
13F1
102
{ACAD_REACTORS
330
1352
102
}
330
1352
100
AcDbXrecord
280
     1
  1
colu
  1
*colu*
  1
*
  1
*
 70
     0
  1
*
  1
*
  0
XRECORD
  5
13F2
102
{ACAD_REACTORS
330
1352
102
}
330
1352
100
AcDbXrecord
280
     1
  1
com
  1
com*
  1
*
  1
*
 70
     0
  1
*
  1
*
  0
XRECORD
  5
13F3
102
{ACAD_REACTORS
330
1352
102
}
330
1352
100
AcDbXrecord
280
     1
  1
con
  1
c-*
  1
*
  1
*
 70
     0
  1
*
  1
*
  0
XRECORD
  5
13F4
102
{ACAD_REACTORS
330
1352
102
}
330
1352
100
AcDbXrecord
280
     1
  1
CRG
  1
tca-6f|*CRG*
  1
*
  1
*
 70
     0
  1
*
  1
*
  0
XRECORD
  5
13F5
102
{ACAD_REACTORS
330
1352
102
}
330
1352
100
AcDbXrecord
280
     1
  1
cyan
  1
*
  1
cyan
  1
*
 70
     0
  1
*
  1
*
  0
XRECORD
  5
13F6
102
{ACAD_REACTORS
330
1352
102
}
330
1352
100
AcDbXrecord
280
     1
  1
C衛生
  1
*
  1
*
  1
*
 70
     0
  1
*
  1
EISEI
  0
XRECORD
  5
13F7
102
{ACAD_REACTORS
330
1352
102
}
330
1352
100
AcDbXrecord
280
     1
  1
C街区関連
  1
*
  1
*
  1
*
 70
  1024
  1
*
  1
*
  0
XRECORD
  5
13F8
102
{ACAD_REACTORS
330
1352
102
}
330
1352
100
AcDbXrecord
280
     1
  1
c雑金物
  1
c*
  1
*
  1
*
 70
     0
  1
*
  1
*
  0
XRECORD
  5
13F9
102
{ACAD_REACTORS
330
1352
102
}
330
1352
100
AcDbXrecord
280
     1
  1
C打計画図
  1
001*,002*,003*,004*,005*,007*,012*,015*,016*,017*,018*,019*,020*,021*,049*,050*,051*,052*,053*,054*,055*,056*,057*,058*,059*,060*,061*,062*,063*,064*,065*,066*,067*,068*,069*,070*,071*,072*,073*,074*,075*
  1
*
  1
*
 70
     0
  1
*
  1
*
  0
XRECORD
  5
13FA
102
{ACAD_REACTORS
330
1352
102
}
330
1352
100
AcDbXrecord
280
     1
  1
D
  1
D*
  1
*
  1
*
 70
     0
  1
*
  1
*
  0
XRECORD
  5
13FB
102
{ACAD_REACTORS
330
1352
102
}
330
1352
100
AcDbXrecord
280
     1
  1
D(表現補助)を表示
  1
D*
  1
*
  1
*
 70
     0
  1
*
  1
*
  0
XRECORD
  5
13FC
102
{ACAD_REACTORS
330
1352
102
}
330
1352
100
AcDbXrecord
280
     1
  1
Ｄ・墓地　施設平面
  1
*も*
  1
*
  1
*
 70
     0
  1
*
  1
*
  0
XRECORD
  5
13FD
102
{ACAD_REACTORS
330
1352
102
}
330
1352
100
AcDbXrecord
280
     1
  1
D16
  1
D16*
  1
*
  1
*
 70
     0
  1
*
  1
*
  0
XRECORD
  5
13FE
102
{ACAD_REACTORS
330
1352
102
}
330
1352
100
AcDbXrecord
280
     1
  1
DASHED
  1
*
  1
*
  1
DASHED
 70
     0
  1
*
  1
*
  0
XRECORD
  5
13FF
102
{ACAD_REACTORS
330
1352
102
}
330
1352
100
AcDbXrecord
280
     1
  1
DASHED2
  1
*
  1
*
  1
DASHED
 70
     0
  1
*
  1
*
  0
XRECORD
  5
1400
102
{ACAD_REACTORS
330
1352
102
}
330
1352
100
AcDbXrecord
280
     1
  1
DEMO
  1
*DEMO*
  1
*
  1
*
 70
     0
  1
*
  1
*
  0
XRECORD
  5
1401
102
{ACAD_REACTORS
330
1352
102
}
330
1352
100
AcDbXrecord
280
     1
  1
DEMOLITION
  1
*DEMO*
  1
*
  1
*
 70
     0
  1
*
  1
*
  0
XRECORD
  5
1402
102
{ACAD_REACTORS
330
1352
102
}
330
1352
100
AcDbXrecord
280
     1
  1
detail
  1
d*
  1
*
  1
*
 70
     0
  1
*
  1
*
  0
XRECORD
  5
1403
102
{ACAD_REACTORS
330
1352
102
}
330
1352
100
AcDbXrecord
280
     1
  1
details
  1
det-*
  1
*
  1
*
 70
     0
  1
*
  1
*
  0
XRECORD
  5
1404
102
{ACAD_REACTORS
330
1352
102
}
330
1352
100
AcDbXrecord
280
     1
  1
DHED
  1
*DHED*
  1
*
  1
*
 70
     0
  1
*
  1
*
  0
XRECORD
  5
1405
102
{ACAD_REACTORS
330
1352
102
}
330
1352
100
AcDbXrecord
280
     1
  1
Dim
  1
*-Dim*
  1
*
  1
*
 70
     0
  1
*
  1
*
  0
XRECORD
  5
1406
102
{ACAD_REACTORS
330
1352
102
}
330
1352
100
AcDbXrecord
280
     1
  1
disegno
  1
ben*
  1
*
  1
*
 70
     0
  1
*
  1
*
  0
XRECORD
  5
1407
102
{ACAD_REACTORS
330
1352
102
}
330
1352
100
AcDbXrecord
280
     1
  1
DOORS
  1
*
  1
*
  1
*
 70
     0
  1
*
  1
*
  0
XRECORD
  5
1408
102
{ACAD_REACTORS
330
1352
102
}
330
1352
100
AcDbXrecord
280
     1
  1
DR
  1
DR*
  1
*
  1
*
 70
     0
  1
*
  1
*
  0
XRECORD
  5
1409
102
{ACAD_REACTORS
330
1352
102
}
330
1352
100
AcDbXrecord
280
     1
  1
DT
  1
DT*
  1
*
  1
*
 70
     0
  1
*
  1
*
  0
XRECORD
  5
140A
102
{ACAD_REACTORS
330
1352
102
}
330
1352
100
AcDbXrecord
280
     1
  1
d外構
  1
d*
  1
*
  1
*
 70
     0
  1
*
  1
*
  0
XRECORD
  5
140B
102
{ACAD_REACTORS
330
1352
102
}
330
1352
100
AcDbXrecord
280
     1
  1
Ｄ街区低木
  1
*て*
  1
*
  1
*
 70
     0
  1
*
  1
*
  0
XRECORD
  5
140C
102
{ACAD_REACTORS
330
1352
102
}
330
1352
100
AcDbXrecord
280
     1
  1
D割付平面
  1
*わ*
  1
*
  1
*
 70
     0
  1
*
  1
*
  0
XRECORD
  5
140D
102
{ACAD_REACTORS
330
1352
102
}
330
1352
100
AcDbXrecord
280
     1
  1
Ｄ給水設備
  1
*ゆ*
  1
*
  1
*
 70
     0
  1
*
  1
*
  0
XRECORD
  5
140E
102
{ACAD_REACTORS
330
1352
102
}
330
1352
100
AcDbXrecord
280
     1
  1
Ｄ計画高平面
  1
*さ*
  1
*
  1
*
 70
     0
  1
*
  1
*
  0
XRECORD
  5
140F
102
{ACAD_REACTORS
330
1352
102
}
330
1352
100
AcDbXrecord
280
     1
  1
Ｄ計画平面
  1
*け*
  1
*
  1
*
 70
     0
  1
*
  1
*
  0
XRECORD
  5
1410
102
{ACAD_REACTORS
330
1352
102
}
330
1352
100
AcDbXrecord
280
     1
  1
Ｄ工事区分
  1
*ぶ*
  1
*
  1
*
 70
     0
  1
*
  1
*
  0
XRECORD
  5
1411
102
{ACAD_REACTORS
330
1352
102
}
330
1352
100
AcDbXrecord
280
     1
  1
Ｄ高木植栽
  1
*こ*
  1
*
  1
*
 70
     0
  1
*
  1
*
  0
XRECORD
  5
1412
102
{ACAD_REACTORS
330
1352
102
}
330
1352
100
AcDbXrecord
280
     1
  1
Ｄ施設平面
  1
*し*
  1
*
  1
*
 70
     0
  1
*
  1
*
  0
XRECORD
  5
1413
102
{ACAD_REACTORS
330
1352
102
}
330
1352
100
AcDbXrecord
280
     1
  1
Ｄ照明設備
  1
*め*
  1
*
  1
*
 70
     0
  1
*
  1
*
  0
XRECORD
  5
1414
102
{ACAD_REACTORS
330
1352
102
}
330
1352
100
AcDbXrecord
280
     1
  1
Ｄ低木
  1
*て*
  1
*
  1
*
 70
     0
  1
*
  1
*
  0
XRECORD
  5
1415
102
{ACAD_REACTORS
330
1352
102
}
330
1352
100
AcDbXrecord
280
     1
  1
Ｄ電気設備
  1
*で*
  1
*
  1
*
 70
     0
  1
*
  1
*
  0
XRECORD
  5
1416
102
{ACAD_REACTORS
330
1352
102
}
330
1352
100
AcDbXrecord
280
     1
  1
Ｄ土壌改良
  1
*ど*
  1
*
  1
*
 70
     0
  1
*
  1
*
  0
XRECORD
  5
1417
102
{ACAD_REACTORS
330
1352
102
}
330
1352
100
AcDbXrecord
280
     1
  1
Ｄ排水平面
  1
*は*
  1
*
  1
*
 70
     0
  1
*
  1
*
  0
XRECORD
  5
1418
102
{ACAD_REACTORS
330
1352
102
}
330
1352
100
AcDbXrecord
280
     1
  1
D舗装平面
  1
*ほ*
  1
*
  1
*
 70
     0
  1
*
  1
*
  0
XRECORD
  5
1419
102
{ACAD_REACTORS
330
1352
102
}
330
1352
100
AcDbXrecord
280
     1
  1
Ｄ墓地施設平面
  1
*も*
  1
*
  1
*
 70
     0
  1
*
  1
*
  0
XRECORD
  5
141A
102
{ACAD_REACTORS
330
1352
102
}
330
1352
100
AcDbXrecord
280
     1
  1
D墓地排水
  1
*は*
  1
*
  1
*
 70
     0
  1
*
  1
*
  0
XRECORD
  5
141B
102
{ACAD_REACTORS
330
1352
102
}
330
1352
100
AcDbXrecord
280
     1
  1
E
  1
*E-*
  1
*
  1
*
 70
     0
  1
*
  1
*
  0
XRECORD
  5
141C
102
{ACAD_REACTORS
330
1352
102
}
330
1352
100
AcDbXrecord
280
     1
  1
E(点線系)を表示
  1
E*
  1
*
  1
*
 70
     0
  1
*
  1
*
  0
XRECORD
  5
141D
102
{ACAD_REACTORS
330
1352
102
}
330
1352
100
AcDbXrecord
280
     1
  1
EEEE
  1
*
  1
*
  1
*
 70
  1804
  1
*
  1
*
  0
XRECORD
  5
141E
102
{ACAD_REACTORS
330
1352
102
}
330
1352
100
AcDbXrecord
280
     1
  1
EISEI
  1
*4EISEI
  1
4
  1
*
 70
     0
  1
*
  1
*
  0
XRECORD
  5
141F
102
{ACAD_REACTORS
330
1352
102
}
330
1352
100
AcDbXrecord
280
     1
  1
elec
  1
01_elec-tgbt
  1
*
  1
*
 70
     0
  1
*
  1
*
  0
XRECORD
  5
1420
102
{ACAD_REACTORS
330
1352
102
}
330
1352
100
AcDbXrecord
280
     1
  1
ERAS1F
  1
*2ERAS1F
  1
*
  1
*
 70
     0
  1
*
  1
*
  0
XRECORD
  5
1421
102
{ACAD_REACTORS
330
1352
102
}
330
1352
100
AcDbXrecord
280
     1
  1
existing
  1
afl-* 
  1
*
  1
*
 70
     0
  1
*
  1
*
  0
XRECORD
  5
1422
102
{ACAD_REACTORS
330
1352
102
}
330
1352
100
AcDbXrecord
280
     1
  1
Exit
  1
*exit*
  1
*
  1
*
 70
     0
  1
*
  1
*
  0
XRECORD
  5
1423
102
{ACAD_REACTORS
330
1352
102
}
330
1352
100
AcDbXrecord
280
     1
  1
F
  1
F*
  1
*
  1
*
 70
     0
  1
*
  1
*
  0
XRECORD
  5
1424
102
{ACAD_REACTORS
330
1352
102
}
330
1352
100
AcDbXrecord
280
     1
  1
F(断面)を表示
  1
F*
  1
*
  1
*
 70
     0
  1
*
  1
*
  0
XRECORD
  5
1425
102
{ACAD_REACTORS
330
1352
102
}
330
1352
100
AcDbXrecord
280
     1
  1
F1
  1
*
  1
*
  1
*
 70
     0
  1
*
  1
*
  0
XRECORD
  5
1426
102
{ACAD_REACTORS
330
1352
102
}
330
1352
100
AcDbXrecord
280
     1
  1
face4
  1
*face4*
  1
*
  1
*
 70
     0
  1
*
  1
*
  0
XRECORD
  5
1427
102
{ACAD_REACTORS
330
1352
102
}
330
1352
100
AcDbXrecord
280
     1
  1
FC_CLADDING
  1
*FC*
  1
*
  1
*
 70
     0
  1
*
  1
*
  0
XRECORD
  5
1428
102
{ACAD_REACTORS
330
1352
102
}
330
1352
100
AcDbXrecord
280
     1
  1
FENCE
  1
*FENCE*
  1
*
  1
*
 70
     0
  1
*
  1
*
  0
XRECORD
  5
1429
102
{ACAD_REACTORS
330
1352
102
}
330
1352
100
AcDbXrecord
280
     1
  1
FF
  1
*
  1
*
  1
*
 70
     4
  1
*
  1
*
  0
XRECORD
  5
142A
102
{ACAD_REACTORS
330
1352
102
}
330
1352
100
AcDbXrecord
280
     1
  1
FH
  1
*FH*
  1
*
  1
*
 70
     0
  1
*
  1
*
  0
XRECORD
  5
142B
102
{ACAD_REACTORS
330
1352
102
}
330
1352
100
AcDbXrecord
280
     1
  1
FILTER1
  1
*
  1
*
  1
*
 70
     0
  1
*
  1
*
  0
XRECORD
  5
142C
102
{ACAD_REACTORS
330
1352
102
}
330
1352
100
AcDbXrecord
280
     1
  1
fini
  1
*fini*
  1
*
  1
*
 70
     0
  1
*
  1
*
  0
XRECORD
  5
142D
102
{ACAD_REACTORS
330
1352
102
}
330
1352
100
AcDbXrecord
280
     1
  1
finish
  1
n-*
  1
*
  1
*
 70
     0
  1
*
  1
*
  0
XRECORD
  5
142E
102
{ACAD_REACTORS
330
1352
102
}
330
1352
100
AcDbXrecord
280
     1
  1
FIRE
  1
*FIRE*
  1
*
  1
*
 70
     0
  1
*
  1
*
  0
XRECORD
  5
142F
102
{ACAD_REACTORS
330
1352
102
}
330
1352
100
AcDbXrecord
280
     1
  1
fixture
  1
f-*
  1
*
  1
*
 70
     0
  1
*
  1
*
  0
XRECORD
  5
1430
102
{ACAD_REACTORS
330
1352
102
}
330
1352
100
AcDbXrecord
280
     1
  1
fl
  1
*FL*
  1
*
  1
*
 70
     0
  1
*
  1
*
  0
XRECORD
  5
1431
102
{ACAD_REACTORS
330
1352
102
}
330
1352
100
AcDbXrecord
280
     1
  1
Floor
  1
A-Flor*
  1
*
  1
*
 70
     0
  1
*
  1
*
  0
XRECORD
  5
1432
102
{ACAD_REACTORS
330
1352
102
}
330
1352
100
AcDbXrecord
280
     1
  1
FLOOR PLAN
  1
A-FLR-*
  1
*
  1
*
 70
     0
  1
*
  1
*
  0
XRECORD
  5
1433
102
{ACAD_REACTORS
330
1352
102
}
330
1352
100
AcDbXrecord
280
     1
  1
fr
  1
*
  1
*
  1
*
 70
     4
  1
*
  1
*
  0
XRECORD
  5
1434
102
{ACAD_REACTORS
330
1352
102
}
330
1352
100
AcDbXrecord
280
     1
  1
freeze
  1
*
  1
*
  1
*
 70
     4
  1
*
  1
*
  0
XRECORD
  5
1435
102
{ACAD_REACTORS
330
1352
102
}
330
1352
100
AcDbXrecord
280
     1
  1
FRZ
  1
*
  1
*
  1
*
 70
     4
  1
*
  1
*
  0
XRECORD
  5
1436
102
{ACAD_REACTORS
330
1352
102
}
330
1352
100
AcDbXrecord
280
     1
  1
Fugou
  1
*-Fugou*
  1
*
  1
*
 70
     0
  1
*
  1
*
  0
XRECORD
  5
1437
102
{ACAD_REACTORS
330
1352
102
}
330
1352
100
AcDbXrecord
280
     1
  1
FUGOU-TATEGU
  1
*FUGOU-TATEGU
  1
*
  1
*
 70
     0
  1
*
  1
*
  0
XRECORD
  5
1438
102
{ACAD_REACTORS
330
1352
102
}
330
1352
100
AcDbXrecord
280
     1
  1
FUKI
  1
*FUKI
  1
*
  1
*
 70
     0
  1
*
  1
*
  0
XRECORD
  5
1439
102
{ACAD_REACTORS
330
1352
102
}
330
1352
100
AcDbXrecord
280
     1
  1
FURN
  1
*F-*
  1
*
  1
*
 70
     0
  1
*
  1
*
  0
XRECORD
  5
143A
102
{ACAD_REACTORS
330
1352
102
}
330
1352
100
AcDbXrecord
280
     1
  1
FURNITURE
  1
*FN*
  1
*
  1
*
 70
     0
  1
*
  1
*
  0
XRECORD
  5
143B
102
{ACAD_REACTORS
330
1352
102
}
330
1352
100
AcDbXrecord
280
     1
  1
FUSE_00
  1
*
  1
*
  1
*
 70
     0
  1
*
  1
*
  0
XRECORD
  5
143C
102
{ACAD_REACTORS
330
1352
102
}
330
1352
100
AcDbXrecord
280
     1
  1
G
  1
*-G*
  1
*
  1
*
 70
     0
  1
*
  1
*
  0
XRECORD
  5
143D
102
{ACAD_REACTORS
330
1352
102
}
330
1352
100
AcDbXrecord
280
     1
  1
G(開口)を表示
  1
G*
  1
*
  1
*
 70
     0
  1
*
  1
*
  0
XRECORD
  5
143E
102
{ACAD_REACTORS
330
1352
102
}
330
1352
100
AcDbXrecord
280
     1
  1
GAIKOU
  1
*
  1
*
  1
*
 70
     0
  1
*
  1
*
  0
XRECORD
  5
143F
102
{ACAD_REACTORS
330
1352
102
}
330
1352
100
AcDbXrecord
280
     1
  1
gel
  1
*ILLUMI*
  1
*
  1
*
 70
     0
  1
*
  1
*
  0
XRECORD
  5
1440
102
{ACAD_REACTORS
330
1352
102
}
330
1352
100
AcDbXrecord
280
     1
  1
gen
  1
g*,*$*
  1
*
  1
*
 70
     0
  1
*
  1
*
  0
XRECORD
  5
1441
102
{ACAD_REACTORS
330
1352
102
}
330
1352
100
AcDbXrecord
280
     1
  1
gondora
  1
a-gondora*
  1
*
  1
*
 70
     0
  1
*
  1
*
  0
XRECORD
  5
1442
102
{ACAD_REACTORS
330
1352
102
}
330
1352
100
AcDbXrecord
280
     1
  1
green
  1
*
  1
green
  1
*
 70
     0
  1
*
  1
*
  0
XRECORD
  5
1443
102
{ACAD_REACTORS
330
1352
102
}
330
1352
100
AcDbXrecord
280
     1
  1
GRID
  1
G*
  1
*
  1
*
 70
     0
  1
*
  1
*
  0
XRECORD
  5
1444
102
{ACAD_REACTORS
330
1352
102
}
330
1352
100
AcDbXrecord
280
     1
  1
gris
  1
*
  1
*
  1
*
 70
     0
  1
*
  1
*
  0
XRECORD
  5
1445
102
{ACAD_REACTORS
330
1352
102
}
330
1352
100
AcDbXrecord
280
     1
  1
H
  1
00*,01*,02*,03*,05*,06*,1*,2*,3*,4*,5*,6*,8*,D*,
  1
*
  1
*
 70
     0
  1
*
  1
*
  0
XRECORD
  5
1446
102
{ACAD_REACTORS
330
1352
102
}
330
1352
100
AcDbXrecord
280
     1
  1
H-
  1
H-*
  1
*
  1
*
 70
     0
  1
*
  1
*
  0
XRECORD
  5
1447
102
{ACAD_REACTORS
330
1352
102
}
330
1352
100
AcDbXrecord
280
     1
  1
H-SIN
  1
*H-SIN
  1
*
  1
*
 70
     0
  1
*
  1
*
  0
XRECORD
  5
1448
102
{ACAD_REACTORS
330
1352
102
}
330
1352
100
AcDbXrecord
280
     1
  1
H(見掛)を表示
  1
H*
  1
*
  1
*
 70
     0
  1
*
  1
*
  0
XRECORD
  5
1449
102
{ACAD_REACTORS
330
1352
102
}
330
1352
100
AcDbXrecord
280
     1
  1
HA
  1
*HA*
  1
*
  1
*
 70
     0
  1
*
  1
*
  0
XRECORD
  5
144A
102
{ACAD_REACTORS
330
1352
102
}
330
1352
100
AcDbXrecord
280
     1
  1
haikin
  1
2-*
  1
*
  1
*
 70
     0
  1
*
  1
*
  0
XRECORD
  5
144B
102
{ACAD_REACTORS
330
1352
102
}
330
1352
100
AcDbXrecord
280
     1
  1
HAISEN
  1
*1,HAISEN
  1
*
  1
*
 70
     0
  1
*
  1
*
  0
XRECORD
  5
144C
102
{ACAD_REACTORS
330
1352
102
}
330
1352
100
AcDbXrecord
280
     1
  1
HARI
  1
*HARI
  1
*
  1
*
 70
     0
  1
*
  1
*
  0
XRECORD
  5
144D
102
{ACAD_REACTORS
330
1352
102
}
330
1352
100
AcDbXrecord
280
     1
  1
hasira
  1
*hasira*
  1
*
  1
*
 70
     0
  1
*
  1
*
  0
XRECORD
  5
144E
102
{ACAD_REACTORS
330
1352
102
}
330
1352
100
AcDbXrecord
280
     1
  1
HATCH
  1
*HATCH*
  1
*
  1
*
 70
     0
  1
*
  1
*
  0
XRECORD
  5
144F
102
{ACAD_REACTORS
330
1352
102
}
330
1352
100
AcDbXrecord
280
     1
  1
HCP
  1
*HCP*
  1
*
  1
*
 70
     0
  1
*
  1
*
  0
XRECORD
  5
1450
102
{ACAD_REACTORS
330
1352
102
}
330
1352
100
AcDbXrecord
280
     1
  1
HEISHO
  1
4MAJ
  1
*
  1
*
 70
     0
  1
*
  1
*
  0
XRECORD
  5
1451
102
{ACAD_REACTORS
330
1352
102
}
330
1352
100
AcDbXrecord
280
     1
  1
HEISHO2
  1
4MAJ,3CWD,3TAT
  1
*
  1
*
 70
     0
  1
*
  1
*
  0
XRECORD
  5
1452
102
{ACAD_REACTORS
330
1352
102
}
330
1352
100
AcDbXrecord
280
     1
  1
HIDDEN
  1
*
  1
*
  1
HIDDEN
 70
     0
  1
*
  1
*
  0
XRECORD
  5
1453
102
{ACAD_REACTORS
330
1352
102
}
330
1352
100
AcDbXrecord
280
     1
  1
HOJO
  1
*HOJO
  1
*
  1
*
 70
     0
  1
*
  1
*
  0
XRECORD
  5
1454
102
{ACAD_REACTORS
330
1352
102
}
330
1352
100
AcDbXrecord
280
     1
  1
hollywood
  1
*
  1
*
  1
*
 70
    12
  1
*
  1
*
  0
XRECORD
  5
1455
102
{ACAD_REACTORS
330
1352
102
}
330
1352
100
AcDbXrecord
280
     1
  1
HOTEL
  1
*HOT*
  1
*
  1
*
 70
     0
  1
*
  1
*
  0
XRECORD
  5
1456
102
{ACAD_REACTORS
330
1352
102
}
330
1352
100
AcDbXrecord
280
     1
  1
huse
  1
0,defpoints
  1
*
  1
*
 70
     0
  1
*
  1
*
  0
XRECORD
  5
1457
102
{ACAD_REACTORS
330
1352
102
}
330
1352
100
AcDbXrecord
280
     1
  1
HYOKI
  1
*HYOKI
  1
*
  1
*
 70
     0
  1
*
  1
*
  0
XRECORD
  5
1458
102
{ACAD_REACTORS
330
1352
102
}
330
1352
100
AcDbXrecord
280
     1
  1
HYOUKI
  1
*
  1
*
  1
*
 70
     0
  1
*
  1
*
  0
XRECORD
  5
1459
102
{ACAD_REACTORS
330
1352
102
}
330
1352
100
AcDbXrecord
280
     1
  1
i
  1
*
  1
*
  1
*
 70
     0
  1
*
  1
*
  0
XRECORD
  5
145A
102
{ACAD_REACTORS
330
1352
102
}
330
1352
100
AcDbXrecord
280
     1
  1
I(二次部材系))を表示
  1
I*
  1
*
  1
*
 70
     0
  1
*
  1
*
  0
XRECORD
  5
145B
102
{ACAD_REACTORS
330
1352
102
}
330
1352
100
AcDbXrecord
280
     1
  1
I2
  1
*I2CL*
  1
*
  1
*
 70
     0
  1
*
  1
*
  0
XRECORD
  5
145C
102
{ACAD_REACTORS
330
1352
102
}
330
1352
100
AcDbXrecord
280
     1
  1
i2cl
  1
*i2c?*
  1
*
  1
*
 70
     0
  1
*
  1
*
  0
XRECORD
  5
145D
102
{ACAD_REACTORS
330
1352
102
}
330
1352
100
AcDbXrecord
280
     1
  1
i5
  1
*i5*
  1
*
  1
*
 70
     0
  1
*
  1
*
  0
XRECORD
  5
145E
102
{ACAD_REACTORS
330
1352
102
}
330
1352
100
AcDbXrecord
280
     1
  1
i9
  1
*i9*
  1
*
  1
*
 70
     0
  1
*
  1
*
  0
XRECORD
  5
145F
102
{ACAD_REACTORS
330
1352
102
}
330
1352
100
AcDbXrecord
280
     1
  1
in
  1
*
  1
*
  1
*
 70
     4
  1
*
  1
*
  0
XRECORD
  5
1460
102
{ACAD_REACTORS
330
1352
102
}
330
1352
100
AcDbXrecord
280
     1
  1
INSERT図
  1
*
  1
*
  1
*
 70
    12
  1
*
  1
*
  0
XRECORD
  5
1461
102
{ACAD_REACTORS
330
1352
102
}
330
1352
100
AcDbXrecord
280
     1
  1
ISSUE
  1
*-ISSUE1-*
  1
*
  1
*
 70
     0
  1
*
  1
*
  0
XRECORD
  5
1462
102
{ACAD_REACTORS
330
1352
102
}
330
1352
100
AcDbXrecord
280
     1
  1
J
  1
*J*
  1
*
  1
*
 70
     0
  1
*
  1
*
  0
XRECORD
  5
1463
102
{ACAD_REACTORS
330
1352
102
}
330
1352
100
AcDbXrecord
280
     1
  1
K
  1
K*
  1
*
  1
*
 70
     0
  1
*
  1
*
  0
XRECORD
  5
1464
102
{ACAD_REACTORS
330
1352
102
}
330
1352
100
AcDbXrecord
280
     1
  1
KABE
  1
*KABE
  1
*
  1
*
 70
     0
  1
*
  1
*
  0
XRECORD
  5
1465
102
{ACAD_REACTORS
330
1352
102
}
330
1352
100
AcDbXrecord
280
     1
  1
KABESHIN
  1
*A12
  1
*
  1
*
 70
     0
  1
*
  1
*
  0
XRECORD
  5
1466
102
{ACAD_REACTORS
330
1352
102
}
330
1352
100
AcDbXrecord
280
     1
  1
KAGU
  1
*KAGU*
  1
*
  1
*
 70
     0
  1
*
  1
*
  0
XRECORD
  5
1467
102
{ACAD_REACTORS
330
1352
102
}
330
1352
100
AcDbXrecord
280
     1
  1
key
  1
keyplan
  1
*
  1
*
 70
     0
  1
*
  1
*
  0
XRECORD
  5
1468
102
{ACAD_REACTORS
330
1352
102
}
330
1352
100
AcDbXrecord
280
     1
  1
KI
  1
KI*
  1
*
  1
*
 70
     0
  1
*
  1
*
  0
XRECORD
  5
1469
102
{ACAD_REACTORS
330
1352
102
}
330
1352
100
AcDbXrecord
280
     1
  1
KIGO
  1
*KIGO*
  1
*
  1
*
 70
     0
  1
*
  1
*
  0
XRECORD
  5
146A
102
{ACAD_REACTORS
330
1352
102
}
330
1352
100
AcDbXrecord
280
     1
  1
KIJUN
  1
*KIJUN
  1
*
  1
*
 70
     0
  1
*
  1
*
  0
XRECORD
  5
146B
102
{ACAD_REACTORS
330
1352
102
}
330
1352
100
AcDbXrecord
280
     1
  1
kiso
  1
f1*
  1
*
  1
*
 70
     0
  1
*
  1
*
  0
XRECORD
  5
146C
102
{ACAD_REACTORS
330
1352
102
}
330
1352
100
AcDbXrecord
280
     1
  1
KSIN
  1
*2KSIN
  1
21
  1
*
 70
     0
  1
*
  1
*
  0
XRECORD
  5
146D
102
{ACAD_REACTORS
330
1352
102
}
330
1352
100
AcDbXrecord
280
     1
  1
kui
  1
*
  1
*
  1
*
 70
     4
  1
*
  1
*
  0
XRECORD
  5
146E
102
{ACAD_REACTORS
330
1352
102
}
330
1352
100
AcDbXrecord
280
     1
  1
KUTAI
  1
*
  1
*
  1
*
 70
     0
  1
*
  1
*
  0
XRECORD
  5
146F
102
{ACAD_REACTORS
330
1352
102
}
330
1352
100
AcDbXrecord
280
     1
  1
L
  1
L*
  1
*
  1
*
 70
     0
  1
*
  1
*
  0
XRECORD
  5
1470
102
{ACAD_REACTORS
330
1352
102
}
330
1352
100
AcDbXrecord
280
     1
  1
LEGEND
  1
*-C-*
  1
*
  1
*
 70
     0
  1
*
  1
*
  0
XRECORD
  5
1471
102
{ACAD_REACTORS
330
1352
102
}
330
1352
100
AcDbXrecord
280
     1
  1
LGS
  1
*LGS*
  1
*
  1
*
 70
     0
  1
*
  1
*
  0
XRECORD
  5
1472
102
{ACAD_REACTORS
330
1352
102
}
330
1352
100
AcDbXrecord
280
     1
  1
light
  1
*light*
  1
*
  1
*
 70
     0
  1
*
  1
*
  0
XRECORD
  5
1473
102
{ACAD_REACTORS
330
1352
102
}
330
1352
100
AcDbXrecord
280
     1
  1
LIST
  1
*LIST*
  1
*
  1
*
 70
     0
  1
*
  1
*
  0
XRECORD
  5
1474
102
{ACAD_REACTORS
330
1352
102
}
330
1352
100
AcDbXrecord
280
     1
  1
lixo
  1
*
  1
*
  1
*
 70
  3072
  1
*
  1
*
  0
XRECORD
  5
1475
102
{ACAD_REACTORS
330
1352
102
}
330
1352
100
AcDbXrecord
280
     1
  1
LOCK
  1
*
  1
*
  1
*
 70
   256
  1
*
  1
*
  0
XRECORD
  5
1476
102
{ACAD_REACTORS
330
1352
102
}
330
1352
100
AcDbXrecord
280
     1
  1
LTA
  1
*
  1
*
  1
*
 70
   768
  1
*
  1
*
  0
XRECORD
  5
1477
102
{ACAD_REACTORS
330
1352
102
}
330
1352
100
AcDbXrecord
280
     1
  1
Ｌ建具
  1
L*tategu*
  1
*
  1
*
 70
     0
  1
*
  1
*
  0
XRECORD
  5
1478
102
{ACAD_REACTORS
330
1352
102
}
330
1352
100
AcDbXrecord
280
     1
  1
M
  1
M*
  1
*
  1
*
 70
     0
  1
*
  1
*
  0
XRECORD
  5
1479
102
{ACAD_REACTORS
330
1352
102
}
330
1352
100
AcDbXrecord
280
     1
  1
MA
  1
MA*
  1
*
  1
*
 70
     0
  1
*
  1
*
  0
XRECORD
  5
147A
102
{ACAD_REACTORS
330
1352
102
}
330
1352
100
AcDbXrecord
280
     1
  1
MACONNERIE
  1
*
  1
*
  1
*
 70
     0
  1
*
  1
*
  0
XRECORD
  5
147B
102
{ACAD_REACTORS
330
1352
102
}
330
1352
100
AcDbXrecord
280
     1
  1
magenta
  1
*
  1
magenta
  1
*
 70
     0
  1
*
  1
*
  0
XRECORD
  5
147C
102
{ACAD_REACTORS
330
1352
102
}
330
1352
100
AcDbXrecord
280
     1
  1
magenta-bleu
  1
*
  1
magenta,bleu
  1
*
 70
     0
  1
*
  1
*
  0
XRECORD
  5
147D
102
{ACAD_REACTORS
330
1352
102
}
330
1352
100
AcDbXrecord
280
     1
  1
maji
  1
*A12
  1
*
  1
*
 70
     0
  1
*
  1
*
  0
XRECORD
  5
147E
102
{ACAD_REACTORS
330
1352
102
}
330
1352
100
AcDbXrecord
280
     1
  1
MAJIKIRI
  1
*MAJIKIRI
  1
*
  1
*
 70
     0
  1
*
  1
*
  0
XRECORD
  5
147F
102
{ACAD_REACTORS
330
1352
102
}
330
1352
100
AcDbXrecord
280
     1
  1
marco
  1
marco*
  1
*
  1
*
 70
     0
  1
*
  1
*
  0
XRECORD
  5
1480
102
{ACAD_REACTORS
330
1352
102
}
330
1352
100
AcDbXrecord
280
     1
  1
MB
  1
*MB
  1
*
  1
*
 70
     0
  1
*
  1
*
  0
XRECORD
  5
1481
102
{ACAD_REACTORS
330
1352
102
}
330
1352
100
AcDbXrecord
280
     1
  1
meji
  1
*MEJI
  1
*
  1
*
 70
     0
  1
*
  1
*
  0
XRECORD
  5
1482
102
{ACAD_REACTORS
330
1352
102
}
330
1352
100
AcDbXrecord
280
     1
  1
merceologico
  1
mq*
  1
*
  1
*
 70
     0
  1
*
  1
*
  0
XRECORD
  5
1483
102
{ACAD_REACTORS
330
1352
102
}
330
1352
100
AcDbXrecord
280
     1
  1
MILL
  1
*MILL*
  1
*
  1
*
 70
     0
  1
*
  1
*
  0
XRECORD
  5
1484
102
{ACAD_REACTORS
330
1352
102
}
330
1352
100
AcDbXrecord
280
     1
  1
MILLWORK
  1
*mILL*
  1
*
  1
*
 70
     0
  1
*
  1
*
  0
XRECORD
  5
1485
102
{ACAD_REACTORS
330
1352
102
}
330
1352
100
AcDbXrecord
280
     1
  1
miwa
  1
*
  1
*
  1
*
 70
     0
  1
*
  1
*
  0
XRECORD
  5
1486
102
{ACAD_REACTORS
330
1352
102
}
330
1352
100
AcDbXrecord
280
     1
  1
MOJI
  1
*MOJI
  1
*
  1
*
 70
     0
  1
*
  1
*
  0
XRECORD
  5
1487
102
{ACAD_REACTORS
330
1352
102
}
330
1352
100
AcDbXrecord
280
     1
  1
MOJI100
  1
*5MOJI100
  1
3
  1
*
 70
     0
  1
*
  1
*
  0
XRECORD
  5
1488
102
{ACAD_REACTORS
330
1352
102
}
330
1352
100
AcDbXrecord
280
     1
  1
N
  1
*N*
  1
*
  1
*
 70
     0
  1
*
  1
*
  0
XRECORD
  5
1489
102
{ACAD_REACTORS
330
1352
102
}
330
1352
100
AcDbXrecord
280
     1
  1
N-
  1
N-*
  1
*
  1
*
 70
     0
  1
*
  1
*
  0
XRECORD
  5
148A
102
{ACAD_REACTORS
330
1352
102
}
330
1352
100
AcDbXrecord
280
     1
  1
NAM
  1
*NAM*
  1
*
  1
*
 70
     0
  1
*
  1
*
  0
XRECORD
  5
148B
102
{ACAD_REACTORS
330
1352
102
}
330
1352
100
AcDbXrecord
280
     1
  1
NEW
  1
*NEW*
  1
*
  1
*
 70
     0
  1
*
  1
*
  0
XRECORD
  5
148C
102
{ACAD_REACTORS
330
1352
102
}
330
1352
100
AcDbXrecord
280
     1
  1
NHK
  1
N*
  1
*
  1
*
 70
     0
  1
*
  1
*
  0
XRECORD
  5
148D
102
{ACAD_REACTORS
330
1352
102
}
330
1352
100
AcDbXrecord
280
     1
  1
no xref
  1
~*|*
  1
*
  1
*
 70
     0
  1
*
  1
*
  0
XRECORD
  5
148E
102
{ACAD_REACTORS
330
1352
102
}
330
1352
100
AcDbXrecord
280
     1
  1
note
  1
tca-6f|*note*
  1
*
  1
*
 70
     0
  1
*
  1
*
  0
XRECORD
  5
148F
102
{ACAD_REACTORS
330
1352
102
}
330
1352
100
AcDbXrecord
280
     1
  1
NUM
  1
*NUM*
  1
*
  1
*
 70
     0
  1
*
  1
*
  0
XRECORD
  5
1490
102
{ACAD_REACTORS
330
1352
102
}
330
1352
100
AcDbXrecord
280
     1
  1
NUMB
  1
*NUM*
  1
*
  1
*
 70
     0
  1
*
  1
*
  0
XRECORD
  5
1491
102
{ACAD_REACTORS
330
1352
102
}
330
1352
100
AcDbXrecord
280
     1
  1
O
  1
*O*
  1
*
  1
*
 70
     0
  1
*
  1
*
  0
XRECORD
  5
1492
102
{ACAD_REACTORS
330
1352
102
}
330
1352
100
AcDbXrecord
280
     1
  1
OF
  1
*
  1
*
  1
*
 70
     3
  1
*
  1
*
  0
XRECORD
  5
1493
102
{ACAD_REACTORS
330
1352
102
}
330
1352
100
AcDbXrecord
280
     1
  1
OFF
  1
*
  1
*
  1
*
 70
     3
  1
*
  1
*
  0
XRECORD
  5
1494
102
{ACAD_REACTORS
330
1352
102
}
330
1352
100
AcDbXrecord
280
     1
  1
on
  1
*
  1
*
  1
*
 70
    13
  1
*
  1
*
  0
XRECORD
  5
1495
102
{ACAD_REACTORS
330
1352
102
}
330
1352
100
AcDbXrecord
280
     1
  1
option 1
  1
1*
  1
*
  1
*
 70
     0
  1
*
  1
*
  0
XRECORD
  5
1496
102
{ACAD_REACTORS
330
1352
102
}
330
1352
100
AcDbXrecord
280
     1
  1
option 2
  1
2*
  1
*
  1
*
 70
     0
  1
*
  1
*
  0
XRECORD
  5
1497
102
{ACAD_REACTORS
330
1352
102
}
330
1352
100
AcDbXrecord
280
     1
  1
OUTLINE
  1
T_*|OUTLINE
  1
*
  1
*
 70
     0
  1
*
  1
*
  0
XRECORD
  5
1498
102
{ACAD_REACTORS
330
1352
102
}
330
1352
100
AcDbXrecord
280
     1
  1
P
  1
*-P*
  1
*
  1
*
 70
     0
  1
*
  1
*
  0
XRECORD
  5
1499
102
{ACAD_REACTORS
330
1352
102
}
330
1352
100
AcDbXrecord
280
     1
  1
pa
  1
*pa*
  1
*
  1
*
 70
     0
  1
*
  1
*
  0
XRECORD
  5
149A
102
{ACAD_REACTORS
330
1352
102
}
330
1352
100
AcDbXrecord
280
     1
  1
PALFOND
  1
*
  1
*
  1
*
 70
    13
  1
*
  1
*
  0
XRECORD
  5
149B
102
{ACAD_REACTORS
330
1352
102
}
330
1352
100
AcDbXrecord
280
     1
  1
PAT
  1
*PAT*
  1
*
  1
*
 70
     0
  1
*
  1
*
  0
XRECORD
  5
149C
102
{ACAD_REACTORS
330
1352
102
}
330
1352
100
AcDbXrecord
280
     1
  1
PC
  1
PC*
  1
*
  1
*
 70
     0
  1
*
  1
*
  0
XRECORD
  5
149D
102
{ACAD_REACTORS
330
1352
102
}
330
1352
100
AcDbXrecord
280
     1
  1
PISO
  1
*PISO
  1
*
  1
*
 70
     0
  1
*
  1
*
  0
XRECORD
  5
149E
102
{ACAD_REACTORS
330
1352
102
}
330
1352
100
AcDbXrecord
280
     1
  1
PLAN
  1
A*,B*,SITE*
  1
*
  1
*
 70
     0
  1
*
  1
*
  0
XRECORD
  5
149F
102
{ACAD_REACTORS
330
1352
102
}
330
1352
100
AcDbXrecord
280
     1
  1
PLMB
  1
*PLMB*
  1
*
  1
*
 70
     0
  1
*
  1
*
  0
XRECORD
  5
14A0
102
{ACAD_REACTORS
330
1352
102
}
330
1352
100
AcDbXrecord
280
     1
  1
plot
  1
*
  1
*
  1
*
 70
     1
  1
*
  1
*
  0
XRECORD
  5
14A1
102
{ACAD_REACTORS
330
1352
102
}
330
1352
100
AcDbXrecord
280
     1
  1
PLUMB
  1
*PLUMB*
  1
*
  1
*
 70
     0
  1
*
  1
*
  0
XRECORD
  5
14A2
102
{ACAD_REACTORS
330
1352
102
}
330
1352
100
AcDbXrecord
280
     1
  1
PNL
  1
*PNL*
  1
*
  1
*
 70
     0
  1
*
  1
*
  0
XRECORD
  5
14A3
102
{ACAD_REACTORS
330
1352
102
}
330
1352
100
AcDbXrecord
280
     1
  1
power
  1
p-*
  1
*
  1
*
 70
     0
  1
*
  1
*
  0
XRECORD
  5
14A4
102
{ACAD_REACTORS
330
1352
102
}
330
1352
100
AcDbXrecord
280
     1
  1
PRT
  1
*PRT*
  1
*
  1
*
 70
     0
  1
*
  1
*
  0
XRECORD
  5
14A5
102
{ACAD_REACTORS
330
1352
102
}
330
1352
100
AcDbXrecord
280
     1
  1
q
  1
*
  1
*
  1
*
 70
     4
  1
*
  1
*
  0
XRECORD
  5
14A6
102
{ACAD_REACTORS
330
1352
102
}
330
1352
100
AcDbXrecord
280
     1
  1
R
  1
R*
  1
*
  1
*
 70
     0
  1
*
  1
*
  0
XRECORD
  5
14A7
102
{ACAD_REACTORS
330
1352
102
}
330
1352
100
AcDbXrecord
280
     1
  1
rack
  1
*rack*
  1
*
  1
*
 70
     0
  1
*
  1
*
  0
XRECORD
  5
14A8
102
{ACAD_REACTORS
330
1352
102
}
330
1352
100
AcDbXrecord
280
     1
  1
RC
  1
*RC
  1
*
  1
*
 70
     0
  1
*
  1
*
  0
XRECORD
  5
14A9
102
{ACAD_REACTORS
330
1352
102
}
330
1352
100
AcDbXrecord
280
     1
  1
RCP
  1
A*,C*
  1
*
  1
*
 70
     0
  1
*
  1
*
  0
XRECORD
  5
14AA
102
{ACAD_REACTORS
330
1352
102
}
330
1352
100
AcDbXrecord
280
     1
  1
rm
  1
*r*
  1
*
  1
*
 70
     0
  1
*
  1
*
  0
XRECORD
  5
14AB
102
{ACAD_REACTORS
330
1352
102
}
330
1352
100
AcDbXrecord
280
     1
  1
RMTAGS
  1
R*
  1
*
  1
*
 70
     0
  1
*
  1
*
  0
XRECORD
  5
14AC
102
{ACAD_REACTORS
330
1352
102
}
330
1352
100
AcDbXrecord
280
     1
  1
RNUM
  1
*NUM*
  1
*
  1
*
 70
     0
  1
*
  1
*
  0
XRECORD
  5
14AD
102
{ACAD_REACTORS
330
1352
102
}
330
1352
100
AcDbXrecord
280
     1
  1
ROOM
  1
*RM*
  1
*
  1
*
 70
     0
  1
*
  1
*
  0
XRECORD
  5
14AE
102
{ACAD_REACTORS
330
1352
102
}
330
1352
100
AcDbXrecord
280
     1
  1
roomno
  1
*num*
  1
*
  1
*
 70
     0
  1
*
  1
*
  0
XRECORD
  5
14AF
102
{ACAD_REACTORS
330
1352
102
}
330
1352
100
AcDbXrecord
280
     1
  1
rouge
  1
*
  1
1
  1
*
 70
     1
  1
*
  1
*
  0
XRECORD
  5
14B0
102
{ACAD_REACTORS
330
1352
102
}
330
1352
100
AcDbXrecord
280
     1
  1
rtkl
  1
*rtkl*
  1
*
  1
*
 70
     0
  1
*
  1
*
  0
XRECORD
  5
14B1
102
{ACAD_REACTORS
330
1352
102
}
330
1352
100
AcDbXrecord
280
     1
  1
S
  1
0,05*,11*,12*,13*,14*,20*,21*,22*,55*,56*,
  1
*
  1
*
 70
     0
  1
*
  1
*
  0
XRECORD
  5
14B2
102
{ACAD_REACTORS
330
1352
102
}
330
1352
100
AcDbXrecord
280
     1
  1
saciencewold
  1
*
  1
*
  1
*
 70
     0
  1
*
  1
*
  0
XRECORD
  5
14B3
102
{ACAD_REACTORS
330
1352
102
}
330
1352
100
AcDbXrecord
280
     1
  1
SETUBI
  1
*SETUBI
  1
*
  1
*
 70
     0
  1
*
  1
*
  0
XRECORD
  5
14B4
102
{ACAD_REACTORS
330
1352
102
}
330
1352
100
AcDbXrecord
280
     1
  1
SHITU
  1
*SHITUMEI*
  1
*
  1
*
 70
     0
  1
*
  1
*
  0
XRECORD
  5
14B5
102
{ACAD_REACTORS
330
1352
102
}
330
1352
100
AcDbXrecord
280
     1
  1
SHITUMEI
  1
*SHITUMEI2
  1
*
  1
*
 70
     0
  1
*
  1
*
  0
XRECORD
  5
14B6
102
{ACAD_REACTORS
330
1352
102
}
330
1352
100
AcDbXrecord
280
     1
  1
SIAG
  1
*3SIAG
  1
*
  1
*
 70
     0
  1
*
  1
*
  0
XRECORD
  5
14B7
102
{ACAD_REACTORS
330
1352
102
}
330
1352
100
AcDbXrecord
280
     1
  1
SIAG-N
  1
*3SIAG-N
  1
7
  1
*
 70
     0
  1
*
  1
*
  0
XRECORD
  5
14B8
102
{ACAD_REACTORS
330
1352
102
}
330
1352
100
AcDbXrecord
280
     1
  1
SIAG3
  1
*3SIAG3
  1
3
  1
*
 70
     0
  1
*
  1
*
  0
XRECORD
  5
14B9
102
{ACAD_REACTORS
330
1352
102
}
330
1352
100
AcDbXrecord
280
     1
  1
sin
  1
*SIN*
  1
*
  1
*
 70
     0
  1
*
  1
*
  0
XRECORD
  5
14BA
102
{ACAD_REACTORS
330
1352
102
}
330
1352
100
AcDbXrecord
280
     1
  1
Sinm
  1
*-Sinm*
  1
*
  1
*
 70
     0
  1
*
  1
*
  0
XRECORD
  5
14BB
102
{ACAD_REACTORS
330
1352
102
}
330
1352
100
AcDbXrecord
280
     1
  1
SITA
  1
*3SITA
  1
*
  1
*
 70
     0
  1
*
  1
*
  0
XRECORD
  5
14BC
102
{ACAD_REACTORS
330
1352
102
}
330
1352
100
AcDbXrecord
280
     1
  1
siyah
  1
*
  1
*
  1
*
 70
     4
  1
*
  1
siyah
  0
XRECORD
  5
14BD
102
{ACAD_REACTORS
330
1352
102
}
330
1352
100
AcDbXrecord
280
     1
  1
SS
  1
*SS*
  1
*
  1
*
 70
     0
  1
*
  1
*
  0
XRECORD
  5
14BE
102
{ACAD_REACTORS
330
1352
102
}
330
1352
100
AcDbXrecord
280
     1
  1
ST
  1
*ST*
  1
*
  1
*
 70
     0
  1
*
  1
*
  0
XRECORD
  5
14BF
102
{ACAD_REACTORS
330
1352
102
}
330
1352
100
AcDbXrecord
280
     1
  1
STA
  1
STA*
  1
*
  1
*
 70
     0
  1
*
  1
*
  0
XRECORD
  5
14C0
102
{ACAD_REACTORS
330
1352
102
}
330
1352
100
AcDbXrecord
280
     1
  1
stairs
  1
*sta*
  1
*
  1
*
 70
     0
  1
*
  1
*
  0
XRECORD
  5
14C1
102
{ACAD_REACTORS
330
1352
102
}
330
1352
100
AcDbXrecord
280
     1
  1
SUGA5
  1
*4SUGA5
  1
5
  1
*
 70
     0
  1
*
  1
*
  0
XRECORD
  5
14C2
102
{ACAD_REACTORS
330
1352
102
}
330
1352
100
AcDbXrecord
280
     1
  1
SUNP
  1
*5SUNP100
  1
1
  1
*
 70
     0
  1
*
  1
*
  0
XRECORD
  5
14C3
102
{ACAD_REACTORS
330
1352
102
}
330
1352
100
AcDbXrecord
280
     1
  1
SUNP100
  1
*5SUNP100
  1
*
  1
*
 70
     0
  1
*
  1
*
  0
XRECORD
  5
14C4
102
{ACAD_REACTORS
330
1352
102
}
330
1352
100
AcDbXrecord
280
     1
  1
T
  1
T*
  1
*
  1
*
 70
     0
  1
*
  1
*
  0
XRECORD
  5
14C5
102
{ACAD_REACTORS
330
1352
102
}
330
1352
100
AcDbXrecord
280
     1
  1
TAKASA
  1
*
  1
2
  1
*
 70
     0
  1
*
  1
*
  0
XRECORD
  5
14C6
102
{ACAD_REACTORS
330
1352
102
}
330
1352
100
AcDbXrecord
280
     1
  1
TATE161
  1
*4TATE161
  1
161
  1
*
 70
     0
  1
*
  1
*
  0
XRECORD
  5
14C7
102
{ACAD_REACTORS
330
1352
102
}
330
1352
100
AcDbXrecord
280
     1
  1
TATEGU
  1
*TATEGU
  1
*
  1
*
 70
     0
  1
*
  1
*
  0
XRECORD
  5
14C8
102
{ACAD_REACTORS
330
1352
102
}
330
1352
100
AcDbXrecord
280
     1
  1
ten
  1
*ten*
  1
*
  1
*
 70
     0
  1
*
  1
*
  0
XRECORD
  5
14C9
102
{ACAD_REACTORS
330
1352
102
}
330
1352
100
AcDbXrecord
280
     1
  1
TENJYOU
  1
C-*
  1
*
  1
*
 70
     0
  1
*
  1
*
  0
XRECORD
  5
14CA
102
{ACAD_REACTORS
330
1352
102
}
330
1352
100
AcDbXrecord
280
     1
  1
TENJYOUNAI
  1
CI-*
  1
*
  1
*
 70
     0
  1
*
  1
*
  0
XRECORD
  5
14CB
102
{ACAD_REACTORS
330
1352
102
}
330
1352
100
AcDbXrecord
280
     1
  1
test
  1
keyplan
  1
*
  1
*
 70
     0
  1
*
  1
*
  0
XRECORD
  5
14CC
102
{ACAD_REACTORS
330
1352
102
}
330
1352
100
AcDbXrecord
280
     1
  1
text
  1
*text*
  1
*
  1
*
 70
     0
  1
*
  1
*
  0
XRECORD
  5
14CD
102
{ACAD_REACTORS
330
1352
102
}
330
1352
100
AcDbXrecord
280
     1
  1
thaw
  1
*
  1
*
  1
*
 70
    12
  1
*
  1
*
  0
XRECORD
  5
14CE
102
{ACAD_REACTORS
330
1352
102
}
330
1352
100
AcDbXrecord
280
     1
  1
TITL
  1
*8TITL
  1
4
  1
*
 70
     0
  1
*
  1
*
  0
XRECORD
  5
14CF
102
{ACAD_REACTORS
330
1352
102
}
330
1352
100
AcDbXrecord
280
     1
  1
tnjyou
  1
c-*
  1
*
  1
*
 70
     0
  1
*
  1
*
  0
XRECORD
  5
14D0
102
{ACAD_REACTORS
330
1352
102
}
330
1352
100
AcDbXrecord
280
     1
  1
tori
  1
*A11
  1
*
  1
*
 70
     0
  1
*
  1
*
  0
XRECORD
  5
14D1
102
{ACAD_REACTORS
330
1352
102
}
330
1352
100
AcDbXrecord
280
     1
  1
TORISHIN
  1
*A11
  1
*
  1
*
 70
     0
  1
*
  1
*
  0
XRECORD
  5
14D2
102
{ACAD_REACTORS
330
1352
102
}
330
1352
100
AcDbXrecord
280
     1
  1
tr
  1
*tr*
  1
*
  1
*
 70
     0
  1
*
  1
*
  0
XRECORD
  5
14D3
102
{ACAD_REACTORS
330
1352
102
}
330
1352
100
AcDbXrecord
280
     1
  1
TSIN
  1
*2TSIN
  1
*
  1
*
 70
     0
  1
*
  1
*
  0
XRECORD
  5
14D4
102
{ACAD_REACTORS
330
1352
102
}
330
1352
100
AcDbXrecord
280
     1
  1
TXT
  1
*TX*
  1
*
  1
*
 70
     0
  1
*
  1
*
  0
XRECORD
  5
14D5
102
{ACAD_REACTORS
330
1352
102
}
330
1352
100
AcDbXrecord
280
     1
  1
UNFREEZ
  1
*
  1
*
  1
*
 70
    12
  1
*
  1
*
  0
XRECORD
  5
14D6
102
{ACAD_REACTORS
330
1352
102
}
330
1352
100
AcDbXrecord
280
     1
  1
UNROCK
  1
*
  1
*
  1
*
 70
   768
  1
*
  1
*
  0
XRECORD
  5
14D7
102
{ACAD_REACTORS
330
1352
102
}
330
1352
100
AcDbXrecord
280
     1
  1
wada
  1
*
  1
*
  1
*
 70
     0
  1
*
  1
*
  0
XRECORD
  5
14D8
102
{ACAD_REACTORS
330
1352
102
}
330
1352
100
AcDbXrecord
280
     1
  1
waku
  1
waku
  1
*
  1
*
 70
     0
  1
*
  1
*
  0
XRECORD
  5
14D9
102
{ACAD_REACTORS
330
1352
102
}
330
1352
100
AcDbXrecord
280
     1
  1
X
  1
*$*$*
  1
*
  1
*
 70
     0
  1
*
  1
*
  0
XRECORD
  5
14DA
102
{ACAD_REACTORS
330
1352
102
}
330
1352
100
AcDbXrecord
280
     1
  1
X(敷地)を表示
  1
X*
  1
*
  1
*
 70
     0
  1
*
  1
*
  0
XRECORD
  5
14DB
102
{ACAD_REACTORS
330
1352
102
}
330
1352
100
AcDbXrecord
280
     1
  1
xref
  1
ground*
  1
*
  1
*
 70
     0
  1
*
  1
*
  0
XRECORD
  5
14DC
102
{ACAD_REACTORS
330
1352
102
}
330
1352
100
AcDbXrecord
280
     1
  1
YAJI
  1
*YAJI*
  1
*
  1
*
 70
     0
  1
*
  1
*
  0
XRECORD
  5
14DD
102
{ACAD_REACTORS
330
1352
102
}
330
1352
100
AcDbXrecord
280
     1
  1
yellow
  1
*
  1
yellow
  1
*
 70
     0
  1
*
  1
*
  0
XRECORD
  5
14DE
102
{ACAD_REACTORS
330
1352
102
}
330
1352
100
AcDbXrecord
280
     1
  1
YUKA
  1
F-*
  1
*
  1
*
 70
     0
  1
*
  1
*
  0
XRECORD
  5
14DF
102
{ACAD_REACTORS
330
1352
102
}
330
1352
100
AcDbXrecord
280
     1
  1
yその他
  1
y*
  1
*
  1
*
 70
     0
  1
*
  1
*
  0
XRECORD
  5
14E0
102
{ACAD_REACTORS
330
1352
102
}
330
1352
100
AcDbXrecord
280
     1
  1
Z
  1
Z*
  1
*
  1
*
 70
     0
  1
*
  1
*
  0
XRECORD
  5
14E1
102
{ACAD_REACTORS
330
1352
102
}
330
1352
100
AcDbXrecord
280
     1
  1
ZATU
  1
*ZATU
  1
*
  1
*
 70
     0
  1
*
  1
*
  0
XRECORD
  5
14E2
102
{ACAD_REACTORS
330
1352
102
}
330
1352
100
AcDbXrecord
280
     1
  1
z図枠
  1
z*
  1
*
  1
*
 70
     0
  1
*
  1
*
  0
XRECORD
  5
14E3
102
{ACAD_REACTORS
330
1352
102
}
330
1352
100
AcDbXrecord
280
     1
  1
к
  1
к-*
  1
*
  1
*
 70
     0
  1
*
  1
*
  0
XRECORD
  5
14E4
102
{ACAD_REACTORS
330
1352
102
}
330
1352
100
AcDbXrecord
280
     1
  1
перегородки
  1
*перегород*
  1
*
  1
*
 70
     0
  1
*
  1
*
  0
XRECORD
  5
14E5
102
{ACAD_REACTORS
330
1352
102
}
330
1352
100
AcDbXrecord
280
     1
  1
イベント給水
  1
*い*
  1
*
  1
*
 70
     0
  1
*
  1
*
  0
XRECORD
  5
14E6
102
{ACAD_REACTORS
330
1352
102
}
330
1352
100
AcDbXrecord
280
     1
  1
ガラス
  1
*HMOJI
  1
*
  1
*
 70
     0
  1
*
  1
*
  0
XRECORD
  5
14E7
102
{ACAD_REACTORS
330
1352
102
}
330
1352
100
AcDbXrecord
280
     1
  1
キ-プラン
  1
*HMOJI,*HOJO2,*HOJO4,*SINSEI
  1
*
  1
*
 70
     0
  1
*
  1
*
  0
XRECORD
  5
14E8
102
{ACAD_REACTORS
330
1352
102
}
330
1352
100
AcDbXrecord
280
     1
  1
キープラン
  1
キープラン*
  1
*
  1
*
 70
     0
  1
*
  1
*
  0
XRECORD
  5
14E9
102
{ACAD_REACTORS
330
1352
102
}
330
1352
100
AcDbXrecord
280
     1
  1
さーくる
  1
*
  1
*
  1
*
 70
     0
  1
*
  1
*
  0
XRECORD
  5
14EA
102
{ACAD_REACTORS
330
1352
102
}
330
1352
100
AcDbXrecord
280
     1
  1
シェルター
  1
シェルター*
  1
*
  1
*
 70
     0
  1
*
  1
*
  0
XRECORD
  5
14EB
102
{ACAD_REACTORS
330
1352
102
}
330
1352
100
AcDbXrecord
280
     1
  1
すべてに反映
  1
*す*
  1
*
  1
*
 70
     0
  1
*
  1
*
  0
XRECORD
  5
14EC
102
{ACAD_REACTORS
330
1352
102
}
330
1352
100
AcDbXrecord
280
     1
  1
スロープ
  1
SL*
  1
*
  1
*
 70
     0
  1
*
  1
*
  0
XRECORD
  5
14ED
102
{ACAD_REACTORS
330
1352
102
}
330
1352
100
AcDbXrecord
280
     1
  1
タイル割付平面図
  1
タイル*
  1
*
  1
*
 70
     0
  1
*
  1
*
  0
XRECORD
  5
14EE
102
{ACAD_REACTORS
330
1352
102
}
330
1352
100
AcDbXrecord
280
     1
  1
ﾃｷｽﾄのみ表示
  1
*NZ5-TEXT
  1
*
  1
*
 70
     0
  1
*
  1
*
  0
XRECORD
  5
14EF
102
{ACAD_REACTORS
330
1352
102
}
330
1352
100
AcDbXrecord
280
     1
  1
ハッチング
  1
*ハッチング
  1
*
  1
*
 70
     0
  1
*
  1
*
  0
XRECORD
  5
14F0
102
{ACAD_REACTORS
330
1352
102
}
330
1352
100
AcDbXrecord
280
     1
  1
フリーズ
  1
*
  1
*
  1
*
 70
     4
  1
*
  1
*
  0
XRECORD
  5
14F1
102
{ACAD_REACTORS
330
1352
102
}
330
1352
100
AcDbXrecord
280
     1
  1
フリーズof
  1
*
  1
*
  1
*
 70
    12
  1
*
  1
*
  0
XRECORD
  5
14F2
102
{ACAD_REACTORS
330
1352
102
}
330
1352
100
AcDbXrecord
280
     1
  1
ﾌﾘｰｽﾞ画層非表示
  1
*
  1
*
  1
*
 70
    12
  1
*
  1
*
  0
XRECORD
  5
14F3
102
{ACAD_REACTORS
330
1352
102
}
330
1352
100
AcDbXrecord
280
     1
  1
ﾌﾘｰｽﾞ画面非表示
  1
*
  1
*
  1
*
 70
    12
  1
*
  1
*
  0
XRECORD
  5
14F4
102
{ACAD_REACTORS
330
1352
102
}
330
1352
100
AcDbXrecord
280
     1
  1
ﾌﾘｰｽﾞ解除
  1
*
  1
*
  1
*
 70
    12
  1
*
  1
*
  0
XRECORD
  5
14F5
102
{ACAD_REACTORS
330
1352
102
}
330
1352
100
AcDbXrecord
280
     1
  1
フリーズ解除
  1
*
  1
*
  1
*
 70
    12
  1
*
  1
*
  0
XRECORD
  5
14F6
102
{ACAD_REACTORS
330
1352
102
}
330
1352
100
AcDbXrecord
280
     1
  1
ﾌﾟﾚｾﾞﾝ枠
  1
*|ﾌﾟﾚｾﾞﾝ枠
  1
*
  1
*
 70
     0
  1
*
  1
*
  0
XRECORD
  5
14F7
102
{ACAD_REACTORS
330
1352
102
}
330
1352
100
AcDbXrecord
280
     1
  1
マーク
  1
*マーク
  1
*
  1
*
 70
     0
  1
*
  1
*
  0
XRECORD
  5
14F8
102
{ACAD_REACTORS
330
1352
102
}
330
1352
100
AcDbXrecord
280
     1
  1
ﾒｲﾝﾌﾟﾗｻﾞ
  1
*め*
  1
*
  1
*
 70
     0
  1
*
  1
*
  0
XRECORD
  5
14F9
102
{ACAD_REACTORS
330
1352
102
}
330
1352
100
AcDbXrecord
280
     1
  1
レベル
  1
*た*
  1
*
  1
*
 70
     0
  1
*
  1
*
  0
XRECORD
  5
14FA
102
{ACAD_REACTORS
330
1352
102
}
330
1352
100
AcDbXrecord
280
     1
  1
ロック
  1
*
  1
*
  1
*
 70
   256
  1
*
  1
*
  0
XRECORD
  5
14FB
102
{ACAD_REACTORS
330
1352
102
}
330
1352
100
AcDbXrecord
280
     1
  1
一括非表示
  1
*
  1
*
  1
*
 70
     3
  1
*
  1
*
  0
XRECORD
  5
14FC
102
{ACAD_REACTORS
330
1352
102
}
330
1352
100
AcDbXrecord
280
     1
  1
一般図
  1
hatch
  1
*
  1
*
 70
     7
  1
*
  1
*
  0
XRECORD
  5
14FD
102
{ACAD_REACTORS
330
1352
102
}
330
1352
100
AcDbXrecord
280
     1
  1
印刷
  1
*
  1
*
  1
*
 70
    13
  1
*
  1
*
  0
XRECORD
  5
14FE
102
{ACAD_REACTORS
330
1352
102
}
330
1352
100
AcDbXrecord
280
     1
  1
荏原機器
  1
KIKI*
  1
*
  1
*
 70
     0
  1
*
  1
*
  0
XRECORD
  5
14FF
102
{ACAD_REACTORS
330
1352
102
}
330
1352
100
AcDbXrecord
280
     1
  1
荏原機器基礎
  1
a3*,KIKI*,text*,stage,矢視記号
  1
*
  1
*
 70
     0
  1
*
  1
*
  0
XRECORD
  5
1500
102
{ACAD_REACTORS
330
1352
102
}
330
1352
100
AcDbXrecord
280
     1
  1
衛生設備図
  1
001*,002*,004*,005*,007*,010*,039*,040*,041*,042*,043*
  1
*
  1
*
 70
     0
  1
*
  1
*
  0
XRECORD
  5
1501
102
{ACAD_REACTORS
330
1352
102
}
330
1352
100
AcDbXrecord
280
     1
  1
黄色
  1
*
  1
YELLOW
  1
*
 70
     0
  1
*
  1
*
  0
XRECORD
  5
1502
102
{ACAD_REACTORS
330
1352
102
}
330
1352
100
AcDbXrecord
280
     1
  1
下階
  1
下階*
  1
*
  1
*
 70
     0
  1
*
  1
*
  0
XRECORD
  5
1503
102
{ACAD_REACTORS
330
1352
102
}
330
1352
100
AcDbXrecord
280
     1
  1
下地
  1
*-下
  1
*
  1
*
 70
     0
  1
*
  1
*
  0
XRECORD
  5
1504
102
{ACAD_REACTORS
330
1352
102
}
330
1352
100
AcDbXrecord
280
     1
  1
外構
  1
外構*
  1
*
  1
*
 70
     0
  1
*
  1
*
  0
XRECORD
  5
1505
102
{ACAD_REACTORS
330
1352
102
}
330
1352
100
AcDbXrecord
280
     1
  1
外部参照－建築
  1
A*
  1
9
  1
*
 70
     0
  1
*
  1
*
  0
XRECORD
  5
1506
102
{ACAD_REACTORS
330
1352
102
}
330
1352
100
AcDbXrecord
280
     1
  1
外部参照除く
  1
A*
  1
*
  1
*
 70
     0
  1
*
  1
*
  0
XRECORD
  5
1507
102
{ACAD_REACTORS
330
1352
102
}
330
1352
100
AcDbXrecord
280
     1
  1
割り付け平面図
  1
*わ*
  1
*
  1
*
 70
     0
  1
*
  1
*
  0
XRECORD
  5
1508
102
{ACAD_REACTORS
330
1352
102
}
330
1352
100
AcDbXrecord
280
     1
  1
割付平面図
  1
*わ*
  1
*
  1
*
 70
     0
  1
*
  1
*
  0
XRECORD
  5
1509
102
{ACAD_REACTORS
330
1352
102
}
330
1352
100
AcDbXrecord
280
     1
  1
潅水平面
  1
*か*
  1
*
  1
*
 70
     0
  1
*
  1
*
  0
XRECORD
  5
150A
102
{ACAD_REACTORS
330
1352
102
}
330
1352
100
AcDbXrecord
280
     1
  1
基
  1
*_基
  1
*
  1
*
 70
     0
  1
*
  1
*
  0
XRECORD
  5
150B
102
{ACAD_REACTORS
330
1352
102
}
330
1352
100
AcDbXrecord
280
     1
  1
基準
  1
基*
  1
*
  1
*
 70
     0
  1
*
  1
*
  0
XRECORD
  5
150C
102
{ACAD_REACTORS
330
1352
102
}
330
1352
100
AcDbXrecord
280
     1
  1
基準階
  1
*基準*
  1
*
  1
*
 70
     0
  1
*
  1
*
  0
XRECORD
  5
150D
102
{ACAD_REACTORS
330
1352
102
}
330
1352
100
AcDbXrecord
280
     1
  1
基礎OFF
  1
+*
  1
*
  1
*
 70
     0
  1
*
  1
*
  0
XRECORD
  5
150E
102
{ACAD_REACTORS
330
1352
102
}
330
1352
100
AcDbXrecord
280
     1
  1
基礎伏
  1
*
  1
*
  1
*
 70
     0
  1
*
  1
*
  0
XRECORD
  5
150F
102
{ACAD_REACTORS
330
1352
102
}
330
1352
100
AcDbXrecord
280
     1
  1
基礎伏図
  1
SIZE,HOJO,ZATU,HATCH,GL-HARI,GL-HASIRA,KISO,KUI,MOJI-K1,GL-FUGO,SUNPO-K1,SUNPO,SUNPO2,SUNPO1,KIJUN3,KIJUN,SIZE
  1
*
  1
*
 70
     0
  1
*
  1
*
  0
XRECORD
  5
1510
102
{ACAD_REACTORS
330
1352
102
}
330
1352
100
AcDbXrecord
280
     1
  1
基盤改良平面図
  1
*き*
  1
*
  1
*
 70
     0
  1
*
  1
*
  0
XRECORD
  5
1511
102
{ACAD_REACTORS
330
1352
102
}
330
1352
100
AcDbXrecord
280
     1
  1
既存杭
  1
既存杭*
  1
*
  1
*
 70
     0
  1
*
  1
*
  0
XRECORD
  5
1512
102
{ACAD_REACTORS
330
1352
102
}
330
1352
100
AcDbXrecord
280
     1
  1
機器
  1
KIKI*
  1
*
  1
*
 70
     0
  1
*
  1
*
  0
XRECORD
  5
1513
102
{ACAD_REACTORS
330
1352
102
}
330
1352
100
AcDbXrecord
280
     1
  1
機器基礎
  1
a3*,KIKI*,text*,stage,矢視記号
  1
*
  1
*
 70
     0
  1
*
  1
*
  0
XRECORD
  5
1514
102
{ACAD_REACTORS
330
1352
102
}
330
1352
100
AcDbXrecord
280
     1
  1
記号
  1
*記号
  1
*
  1
*
 70
     0
  1
*
  1
*
  0
XRECORD
  5
1515
102
{ACAD_REACTORS
330
1352
102
}
330
1352
100
AcDbXrecord
280
     1
  1
給水設備平面図
  1
*み*
  1
*
  1
*
 70
     0
  1
*
  1
*
  0
XRECORD
  5
1516
102
{ACAD_REACTORS
330
1352
102
}
330
1352
100
AcDbXrecord
280
     1
  1
給水平面
  1
*き*
  1
*
  1
*
 70
     0
  1
*
  1
*
  0
XRECORD
  5
1517
102
{ACAD_REACTORS
330
1352
102
}
330
1352
100
AcDbXrecord
280
     1
  1
区画
  1
区画*
  1
*
  1
*
 70
     0
  1
*
  1
*
  0
XRECORD
  5
1518
102
{ACAD_REACTORS
330
1352
102
}
330
1352
100
AcDbXrecord
280
     1
  1
躯体
  1
*A21*
  1
*
  1
*
 70
     0
  1
*
  1
*
  0
XRECORD
  5
1519
102
{ACAD_REACTORS
330
1352
102
}
330
1352
100
AcDbXrecord
280
     1
  1
躯体図
  1
D*
  1
*
  1
*
 70
     0
  1
*
  1
*
  0
XRECORD
  5
151A
102
{ACAD_REACTORS
330
1352
102
}
330
1352
100
AcDbXrecord
280
     1
  1
空調jv
  1
00i*
  1
*
  1
*
 70
     0
  1
*
  1
*
  0
XRECORD
  5
151B
102
{ACAD_REACTORS
330
1352
102
}
330
1352
100
AcDbXrecord
280
     1
  1
空調設備図
  1
001*,002*,004*,005*,007*,010*,033*,034*,035*,036*,037*,038*
  1
*
  1
*
 70
     0
  1
*
  1
*
  0
XRECORD
  5
151C
102
{ACAD_REACTORS
330
1352
102
}
330
1352
100
AcDbXrecord
280
     1
  1
郡川
  1
kijun,kabe,sunpo
  1
*
  1
*
 70
     3
  1
*
  1
*
  0
XRECORD
  5
151D
102
{ACAD_REACTORS
330
1352
102
}
330
1352
100
AcDbXrecord
280
     1
  1
型枠計画図
  1
001*,002*,003*,004*,005*,006*,007*,010*,012*,050*,051*,055*,056*,057*,058*,059*,060*,061*,062*,063*,064*,065*,066*,067*,068*,069*,070*,071*,072*,073*,074*,075*
  1
*
  1
*
 70
     0
  1
*
  1
*
  0
XRECORD
  5
151E
102
{ACAD_REACTORS
330
1352
102
}
330
1352
100
AcDbXrecord
280
     1
  1
計画高平面図
  1
*く*
  1
*
  1
*
 70
     0
  1
*
  1
*
  0
XRECORD
  5
151F
102
{ACAD_REACTORS
330
1352
102
}
330
1352
100
AcDbXrecord
280
     1
  1
計画平面
  1
*け*
  1
*
  1
*
 70
     0
  1
*
  1
*
  0
XRECORD
  5
1520
102
{ACAD_REACTORS
330
1352
102
}
330
1352
100
AcDbXrecord
280
     1
  1
計画平面図
  1
*け*
  1
*
  1
*
 70
     0
  1
*
  1
*
  0
XRECORD
  5
1521
102
{ACAD_REACTORS
330
1352
102
}
330
1352
100
AcDbXrecord
280
     1
  1
劇場ﾌﾟﾗｻﾞ
  1
*え*
  1
*
  1
*
 70
     0
  1
*
  1
*
  0
XRECORD
  5
1522
102
{ACAD_REACTORS
330
1352
102
}
330
1352
100
AcDbXrecord
280
     1
  1
劇場棟
  1
*げ*
  1
*
  1
*
 70
     0
  1
*
  1
*
  0
XRECORD
  5
1523
102
{ACAD_REACTORS
330
1352
102
}
330
1352
100
AcDbXrecord
280
     1
  1
建具
  1
*-建
  1
*
  1
*
 70
     0
  1
*
  1
*
  0
XRECORD
  5
1524
102
{ACAD_REACTORS
330
1352
102
}
330
1352
100
AcDbXrecord
280
     1
  1
建築接地図
  1
A01*
  1
*
  1
*
 70
     0
  1
*
  1
*
  0
XRECORD
  5
1525
102
{ACAD_REACTORS
330
1352
102
}
330
1352
100
AcDbXrecord
280
     1
  1
見上げ
  1
*U
  1
*
  1
*
 70
     0
  1
*
  1
*
  0
XRECORD
  5
1526
102
{ACAD_REACTORS
330
1352
102
}
330
1352
100
AcDbXrecord
280
     1
  1
現在非表示画層
  1
*
  1
*
  1
*
 70
     3
  1
*
  1
*
  0
XRECORD
  5
1527
102
{ACAD_REACTORS
330
1352
102
}
330
1352
100
AcDbXrecord
280
     1
  1
光天井
  1
*-光
  1
*
  1
*
 70
     0
  1
*
  1
*
  0
XRECORD
  5
1528
102
{ACAD_REACTORS
330
1352
102
}
330
1352
100
AcDbXrecord
280
     1
  1
公園
  1
K*
  1
*
  1
*
 70
     0
  1
*
  1
*
  0
XRECORD
  5
1529
102
{ACAD_REACTORS
330
1352
102
}
330
1352
100
AcDbXrecord
280
     1
  1
工事区分図
  1
*じ*
  1
*
  1
*
 70
     0
  1
*
  1
*
  0
XRECORD
  5
152A
102
{ACAD_REACTORS
330
1352
102
}
330
1352
100
AcDbXrecord
280
     1
  1
工事区分図AB
  1
*α*
  1
*
  1
*
 70
     0
  1
*
  1
*
  0
XRECORD
  5
152B
102
{ACAD_REACTORS
330
1352
102
}
330
1352
100
AcDbXrecord
280
     1
  1
工事区分図CD
  1
*β*
  1
*
  1
*
 70
     0
  1
*
  1
*
  0
XRECORD
  5
152C
102
{ACAD_REACTORS
330
1352
102
}
330
1352
100
AcDbXrecord
280
     1
  1
高さ
  1
204-TEXT,東西道路*
  1
*
  1
*
 70
     0
  1
*
  1
*
  0
XRECORD
  5
152D
102
{ACAD_REACTORS
330
1352
102
}
330
1352
100
AcDbXrecord
280
     1
  1
高木植栽平面
  1
*こ*
  1
*
  1
*
 70
     0
  1
*
  1
*
  0
XRECORD
  5
152E
102
{ACAD_REACTORS
330
1352
102
}
330
1352
100
AcDbXrecord
280
     1
  1
高木平面図
  1
*こ*
  1
*
  1
*
 70
     0
  1
*
  1
*
  0
XRECORD
  5
152F
102
{ACAD_REACTORS
330
1352
102
}
330
1352
100
AcDbXrecord
280
     1
  1
座席のみ
  1
*
  1
*
  1
*
 70
     0
  1
*
  1
*
  0
XRECORD
  5
1530
102
{ACAD_REACTORS
330
1352
102
}
330
1352
100
AcDbXrecord
280
     1
  1
作業
  1
100-*,地区*,
  1
*
  1
*
 70
     1
  1
*
  1
*
  0
XRECORD
  5
1531
102
{ACAD_REACTORS
330
1352
102
}
330
1352
100
AcDbXrecord
280
     1
  1
参考
  1
六*
  1
*
  1
*
 70
     0
  1
*
  1
*
  0
XRECORD
  5
1532
102
{ACAD_REACTORS
330
1352
102
}
330
1352
100
AcDbXrecord
280
     1
  1
山止根切計画図
  1
001*,002*,003*,004*,005*,007*,012*,049*,050*,051*,052*,053*,054*,055*,056*,057*,058*,059*,060*,061*,062*,064*,065*,066*,067*,068*,069*,070*,071*,072*,073*,074*,075*
  1
*
  1
*
 70
     0
  1
*
  1
*
  0
XRECORD
  5
1533
102
{ACAD_REACTORS
330
1352
102
}
330
1352
100
AcDbXrecord
280
     1
  1
仕
  1
*_仕
  1
*
  1
*
 70
     0
  1
*
  1
*
  0
XRECORD
  5
1534
102
{ACAD_REACTORS
330
1352
102
}
330
1352
100
AcDbXrecord
280
     1
  1
仕上
  1
*-2
  1
*
  1
*
 70
     0
  1
*
  1
*
  0
XRECORD
  5
1535
102
{ACAD_REACTORS
330
1352
102
}
330
1352
100
AcDbXrecord
280
     1
  1
仕上図
  1
C*
  1
*
  1
*
 70
     0
  1
*
  1
*
  0
XRECORD
  5
1536
102
{ACAD_REACTORS
330
1352
102
}
330
1352
100
AcDbXrecord
280
     1
  1
使用中
  1
使用中
  1
*
  1
*
 70
     1
  1
*
  1
*
  0
XRECORD
  5
1537
102
{ACAD_REACTORS
330
1352
102
}
330
1352
100
AcDbXrecord
280
     1
  1
施設配置図
  1
*し*
  1
*
  1
*
 70
     0
  1
*
  1
*
  0
XRECORD
  5
1538
102
{ACAD_REACTORS
330
1352
102
}
330
1352
100
AcDbXrecord
280
     1
  1
施設平面
  1
*し*
  1
*
  1
*
 70
     0
  1
*
  1
*
  0
XRECORD
  5
1539
102
{ACAD_REACTORS
330
1352
102
}
330
1352
100
AcDbXrecord
280
     1
  1
施設平面図
  1
*し*
  1
*
  1
*
 70
     0
  1
*
  1
*
  0
XRECORD
  5
153A
102
{ACAD_REACTORS
330
1352
102
}
330
1352
100
AcDbXrecord
280
     1
  1
紫
  1
*
  1
Magenta
  1
*
 70
     0
  1
*
  1
*
  0
XRECORD
  5
153B
102
{ACAD_REACTORS
330
1352
102
}
330
1352
100
AcDbXrecord
280
     1
  1
床伏図
  1
*U*,20,Z20,Z22,Z23
  1
*
  1
*
 70
     0
  1
*
  1
*
  0
XRECORD
  5
153C
102
{ACAD_REACTORS
330
1352
102
}
330
1352
100
AcDbXrecord
280
     1
  1
昇降機
  1
T*
  1
*
  1
*
 70
     0
  1
*
  1
*
  0
XRECORD
  5
153D
102
{ACAD_REACTORS
330
1352
102
}
330
1352
100
AcDbXrecord
280
     1
  1
照明
  1
*ら*,*れ*
  1
*
  1
*
 70
     0
  1
*
  1
*
  0
XRECORD
  5
153E
102
{ACAD_REACTORS
330
1352
102
}
330
1352
100
AcDbXrecord
280
     1
  1
照明Ｃ１
  1
*ら*
  1
*
  1
*
 70
     0
  1
*
  1
*
  0
XRECORD
  5
153F
102
{ACAD_REACTORS
330
1352
102
}
330
1352
100
AcDbXrecord
280
     1
  1
照明Ｃ２
  1
*れ*
  1
*
  1
*
 70
     0
  1
*
  1
*
  0
XRECORD
  5
1540
102
{ACAD_REACTORS
330
1352
102
}
330
1352
100
AcDbXrecord
280
     1
  1
照明配置図
  1
*め*
  1
*
  1
*
 70
     0
  1
*
  1
*
  0
XRECORD
  5
1541
102
{ACAD_REACTORS
330
1352
102
}
330
1352
100
AcDbXrecord
280
     1
  1
詳細
  1
詳細*
  1
*
  1
*
 70
     0
  1
*
  1
*
  0
XRECORD
  5
1542
102
{ACAD_REACTORS
330
1352
102
}
330
1352
100
AcDbXrecord
280
     1
  1
詳細図
  1
*u*,*w*,*y*,*x*,*s*,*V*,06
  1
*
  1
*
 70
     0
  1
*
  1
*
  0
XRECORD
  5
1543
102
{ACAD_REACTORS
330
1352
102
}
330
1352
100
AcDbXrecord
280
     1
  1
上階躯体図
  1
KUTAI-Z,SIZE,HOJO,ZATU,HATCH,BR-S,KABE2,KABE,MAJIKIRI,KOBARI-S,KOBARI-R,HARI-S,HARI-R,HASIRA-S,HASIRA-R,MOJI-K2,FL-FUGO,FUGO-W,SUNPO-K2,SUNPO,SUNPO2,SUNPO1,KIJUN2,KIJUN1,KIJUN,
  1
*
  1
*
 70
     0
  1
*
  1
*
  0
XRECORD
  5
1544
102
{ACAD_REACTORS
330
1352
102
}
330
1352
100
AcDbXrecord
280
     1
  1
植栽
  1
*木*
  1
*
  1
*
 70
     0
  1
*
  1
*
  0
XRECORD
  5
1545
102
{ACAD_REACTORS
330
1352
102
}
330
1352
100
AcDbXrecord
280
     1
  1
植栽基盤平面
  1
*ど*
  1
*
  1
*
 70
     0
  1
*
  1
*
  0
XRECORD
  5
1546
102
{ACAD_REACTORS
330
1352
102
}
330
1352
100
AcDbXrecord
280
     1
  1
植栽現況
  1
*植*
  1
*
  1
*
 70
     0
  1
*
  1
*
  0
XRECORD
  5
1547
102
{ACAD_REACTORS
330
1352
102
}
330
1352
100
AcDbXrecord
280
     1
  1
植栽高木AB
  1
*λ*
  1
*
  1
*
 70
     0
  1
*
  1
*
  0
XRECORD
  5
1548
102
{ACAD_REACTORS
330
1352
102
}
330
1352
100
AcDbXrecord
280
     1
  1
植栽高木CD
  1
*ｑ*
  1
*
  1
*
 70
     0
  1
*
  1
*
  0
XRECORD
  5
1549
102
{ACAD_REACTORS
330
1352
102
}
330
1352
100
AcDbXrecord
280
     1
  1
植栽低木AB
  1
*γ*
  1
*
  1
*
 70
     0
  1
*
  1
*
  0
XRECORD
  5
154A
102
{ACAD_REACTORS
330
1352
102
}
330
1352
100
AcDbXrecord
280
     1
  1
植栽低木ＣＤ
  1
*Θ*
  1
*
  1
*
 70
     0
  1
*
  1
*
  0
XRECORD
  5
154B
102
{ACAD_REACTORS
330
1352
102
}
330
1352
100
AcDbXrecord
280
     1
  1
色番号8
  1
*
  1
8
  1
*
 70
     0
  1
*
  1
*
  0
XRECORD
  5
154C
102
{ACAD_REACTORS
330
1352
102
}
330
1352
100
AcDbXrecord
280
     1
  1
申請用
  1
*あ*,*き*,*グ*,*み*,*オ*,*ピ*,*92*
  1
*
  1
*
 70
     0
  1
*
  1
*
  0
XRECORD
  5
154D
102
{ACAD_REACTORS
330
1352
102
}
330
1352
100
AcDbXrecord
280
     1
  1
芯
  1
*芯
  1
*
  1
*
 70
     0
  1
*
  1
*
  0
XRECORD
  5
154E
102
{ACAD_REACTORS
330
1352
102
}
330
1352
100
AcDbXrecord
280
     1
  1
芯関係
  1
001*,002*,032*
  1
*
  1
*
 70
     0
  1
*
  1
*
  0
XRECORD
  5
154F
102
{ACAD_REACTORS
330
1352
102
}
330
1352
100
AcDbXrecord
280
     1
  1
水
  1
*
  1
cyan
  1
*
 70
     0
  1
*
  1
*
  0
XRECORD
  5
1550
102
{ACAD_REACTORS
330
1352
102
}
330
1352
100
AcDbXrecord
280
     1
  1
水色
  1
*
  1
Cyan
  1
*
 70
     0
  1
*
  1
*
  0
XRECORD
  5
1551
102
{ACAD_REACTORS
330
1352
102
}
330
1352
100
AcDbXrecord
280
     1
  1
寸法
  1
*寸法
  1
*
  1
*
 70
     0
  1
*
  1
*
  0
XRECORD
  5
1552
102
{ACAD_REACTORS
330
1352
102
}
330
1352
100
AcDbXrecord
280
     1
  1
製作
  1
B*
  1
*
  1
*
 70
     0
  1
*
  1
*
  0
XRECORD
  5
1553
102
{ACAD_REACTORS
330
1352
102
}
330
1352
100
AcDbXrecord
280
     1
  1
製作-躯体
  1
BS*
  1
*
  1
*
 70
     0
  1
*
  1
*
  0
XRECORD
  5
1554
102
{ACAD_REACTORS
330
1352
102
}
330
1352
100
AcDbXrecord
280
     1
  1
製作-建築
  1
BD*
  1
*
  1
*
 70
     0
  1
*
  1
*
  0
XRECORD
  5
1555
102
{ACAD_REACTORS
330
1352
102
}
330
1352
100
AcDbXrecord
280
     1
  1
製作-昇降機
  1
BT*
  1
*
  1
*
 70
     0
  1
*
  1
*
  0
XRECORD
  5
1556
102
{ACAD_REACTORS
330
1352
102
}
330
1352
100
AcDbXrecord
280
     1
  1
青
  1
*
  1
blue
  1
*
 70
     0
  1
*
  1
*
  0
XRECORD
  5
1557
102
{ACAD_REACTORS
330
1352
102
}
330
1352
100
AcDbXrecord
280
     1
  1
設備
  1
E*,P*,M*
  1
*
  1
*
 70
     0
  1
*
  1
*
  0
XRECORD
  5
1558
102
{ACAD_REACTORS
330
1352
102
}
330
1352
100
AcDbXrecord
280
     1
  1
設備プロット
  1
02*
  1
*
  1
*
 70
     0
  1
*
  1
*
  0
XRECORD
  5
1559
102
{ACAD_REACTORS
330
1352
102
}
330
1352
100
AcDbXrecord
280
     1
  1
全階平面図
  1
*
  1
*
  1
*
 70
     0
  1
*
  1
*
  0
XRECORD
  5
155A
102
{ACAD_REACTORS
330
1352
102
}
330
1352
100
AcDbXrecord
280
     1
  1
総合仮設図
  1
001*,002*,003*,004*,005*,007*,012*,015*,016*,017*,018*,019*,020*,021*,049*,050*,051*,052*,053*,054*,055*,056*,057*,058*,059*,060*,061*,062*,063*,064*,065*,066*,067*,068*,069*,070*,071*,072*,073*,074*,075*
  1
*
  1
*
 70
     0
  1
*
  1
*
  0
XRECORD
  5
155B
102
{ACAD_REACTORS
330
1352
102
}
330
1352
100
AcDbXrecord
280
     1
  1
総合図
  1
*z*,*u*,*w*,*y*,*x*,*V*,06
  1
*
  1
*
 70
     0
  1
*
  1
*
  0
XRECORD
  5
155C
102
{ACAD_REACTORS
330
1352
102
}
330
1352
100
AcDbXrecord
280
     1
  1
足場計画図
  1
001*,002*,003*,004*,005*,007*,012*,015*,049*,050*,051*,055*,056*,057*,058*,059*,060*,061*,062*,064*,065*,066*,067*,068*,069*,070*,071*,072*,073*,074*,075*
  1
*
  1
*
 70
     0
  1
*
  1
*
  0
XRECORD
  5
155D
102
{ACAD_REACTORS
330
1352
102
}
330
1352
100
AcDbXrecord
280
     1
  1
地下埋設
  1
*ち*
  1
*
  1
*
 70
     0
  1
*
  1
*
  0
XRECORD
  5
155E
102
{ACAD_REACTORS
330
1352
102
}
330
1352
100
AcDbXrecord
280
     1
  1
中野
  1
中野*
  1
*
  1
*
 70
     0
  1
*
  1
*
  0
XRECORD
  5
155F
102
{ACAD_REACTORS
330
1352
102
}
330
1352
100
AcDbXrecord
280
     1
  1
低木植栽平面
  1
*て*
  1
*
  1
*
 70
     0
  1
*
  1
*
  0
XRECORD
  5
1560
102
{ACAD_REACTORS
330
1352
102
}
330
1352
100
AcDbXrecord
280
     1
  1
低木平面図
  1
*て*
  1
*
  1
*
 70
     0
  1
*
  1
*
  0
XRECORD
  5
1561
102
{ACAD_REACTORS
330
1352
102
}
330
1352
100
AcDbXrecord
280
     1
  1
鉄骨
  1
*-1
  1
*
  1
*
 70
     0
  1
*
  1
*
  0
XRECORD
  5
1562
102
{ACAD_REACTORS
330
1352
102
}
330
1352
100
AcDbXrecord
280
     1
  1
鉄骨建方計画図
  1
001*,002*,003*,004*,005*,007*,012*,013*,049*,050*,051*,052*,053*,054*,055*,056*,057*,058*,059*,060*,061*,062*,063*,064*,065*,066*,067*,068*,069*,070*,071*,072*,073*,074*,075*
  1
*
  1
*
 70
     0
  1
*
  1
*
  0
XRECORD
  5
1563
102
{ACAD_REACTORS
330
1352
102
}
330
1352
100
AcDbXrecord
280
     1
  1
天井インサート図
  1
001*,002*,004*,010*,022*,023*,024*,025*,026*,027*,028*,029*,037*,042*
  1
*
  1
*
 70
     0
  1
*
  1
*
  0
XRECORD
  5
1564
102
{ACAD_REACTORS
330
1352
102
}
330
1352
100
AcDbXrecord
280
     1
  1
天井総合図
  1
001*,002*,004*,005*,007*,010*,022*,023*,024*,025*,026*,027*,028*,029*,030*,031*,033*,035*,036*,037*,039*,041*,042*,044*,046*,047*
  1
*
  1
*
 70
     0
  1
*
  1
*
  0
XRECORD
  5
1565
102
{ACAD_REACTORS
330
1352
102
}
330
1352
100
AcDbXrecord
280
     1
  1
天井伏図
  1
0,00*,01*,03*,05*,1*,2*,3*,4*,7*,9*
  1
*
  1
*
 70
     0
  1
*
  1
*
  0
XRECORD
  5
1566
102
{ACAD_REACTORS
330
1352
102
}
330
1352
100
AcDbXrecord
280
     1
  1
天伏
  1
*05
  1
*
  1
*
 70
     0
  1
*
  1
*
  0
XRECORD
  5
1567
102
{ACAD_REACTORS
330
1352
102
}
330
1352
100
AcDbXrecord
280
     1
  1
電気設備図
  1
001*,002*,004*,005*,007*,010*,030*,031*,044*,045*,046*,047*,048*
  1
*
  1
*
 70
     0
  1
*
  1
*
  0
XRECORD
  5
1568
102
{ACAD_REACTORS
330
1352
102
}
330
1352
100
AcDbXrecord
280
     1
  1
土壌改良
  1
*ど*
  1
*
  1
*
 70
     0
  1
*
  1
*
  0
XRECORD
  5
1569
102
{ACAD_REACTORS
330
1352
102
}
330
1352
100
AcDbXrecord
280
     1
  1
土木計画平面図
  1
*^ *,*B*,*0*,*排*,*法*,*ﾊ*,*b*
  1
*
  1
*
 70
     0
  1
*
  1
*
  0
XRECORD
  5
156A
102
{ACAD_REACTORS
330
1352
102
}
330
1352
100
AcDbXrecord
280
     1
  1
道路
  1
R*
  1
*
  1
*
 70
     0
  1
*
  1
*
  0
XRECORD
  5
156B
102
{ACAD_REACTORS
330
1352
102
}
330
1352
100
AcDbXrecord
280
     1
  1
道路関係図
  1
001*,002*,003*,004*,007*,012*,015*,016*,017*,018*,019*,020*,021*,049*,050*,051*,052*,053*,054*,055*,056*,057*,058*,059*,060*,061*,062*,063*,064*,065*,066*,067*,068*,069*,070*,071*,072*,073*,074*,075*
  1
*
  1
*
 70
     0
  1
*
  1
*
  0
XRECORD
  5
156C
102
{ACAD_REACTORS
330
1352
102
}
330
1352
100
AcDbXrecord
280
     1
  1
排水
  1
*は*
  1
*
  1
*
 70
     0
  1
*
  1
*
  0
XRECORD
  5
156D
102
{ACAD_REACTORS
330
1352
102
}
330
1352
100
AcDbXrecord
280
     1
  1
排水設備平面図
  1
*は*
  1
*
  1
*
 70
     0
  1
*
  1
*
  0
XRECORD
  5
156E
102
{ACAD_REACTORS
330
1352
102
}
330
1352
100
AcDbXrecord
280
     1
  1
排水平面
  1
*は*
  1
*
  1
*
 70
     0
  1
*
  1
*
  0
XRECORD
  5
156F
102
{ACAD_REACTORS
330
1352
102
}
330
1352
100
AcDbXrecord
280
     1
  1
配管
  1
PIPE*
  1
*
  1
*
 70
     0
  1
*
  1
*
  0
XRECORD
  5
1570
102
{ACAD_REACTORS
330
1352
102
}
330
1352
100
AcDbXrecord
280
     1
  1
非表示
  1
*
  1
*
  1
*
 70
     3
  1
*
  1
*
  0
XRECORD
  5
1571
102
{ACAD_REACTORS
330
1352
102
}
330
1352
100
AcDbXrecord
280
     1
  1
非表示ﾚｲﾔｰ
  1
*-z
  1
*
  1
*
 70
     0
  1
*
  1
*
  0
XRECORD
  5
1572
102
{ACAD_REACTORS
330
1352
102
}
330
1352
100
AcDbXrecord
280
     1
  1
表示
  1
*
  1
*
  1
*
 70
     1
  1
*
  1
*
  0
XRECORD
  5
1573
102
{ACAD_REACTORS
330
1352
102
}
330
1352
100
AcDbXrecord
280
     1
  1
表示・非表示
  1
*
  1
*
  1
*
 70
     1
  1
*
  1
*
  0
XRECORD
  5
1574
102
{ACAD_REACTORS
330
1352
102
}
330
1352
100
AcDbXrecord
280
     1
  1
表示2
  1
*
  1
*
  1
*
 70
   257
  1
*
  1
*
  0
XRECORD
  5
1575
102
{ACAD_REACTORS
330
1352
102
}
330
1352
100
AcDbXrecord
280
     1
  1
分割枠
  1
枠*
  1
*
  1
*
 70
     0
  1
*
  1
*
  0
XRECORD
  5
1576
102
{ACAD_REACTORS
330
1352
102
}
330
1352
100
AcDbXrecord
280
     1
  1
平面詳細図
  1
SUNPO-S,SIZE,HOJO,ZATU,HATCH,HWAKU,HMOJI,WARITUKE-T,WARITUKE-Y,WARITUKE-K,TATEGU1,TATEGU,BR-S,MAJIKIRI,KABE2,SIAGE,KABE1,KABE,KOBARI-S,KOBARI-R,HARI-S,HARI-R,HASIRA-S,HASIRA-R,MOJI,SHITUMEI,LABEL,FL-FUGO,FUGO-W,SUNPO,SUNPO2,SUNPO1,KIJUN2,KIJUN1,KIJUN
  1
*
  1
*
 70
     0
  1
*
  1
*
  0
XRECORD
  5
1577
102
{ACAD_REACTORS
330
1352
102
}
330
1352
100
AcDbXrecord
280
     1
  1
平面図
  1
*HMOJI,*HOJO2,*HOJO3,*SINSEI,*FUGOT
  1
*
  1
*
 70
     0
  1
*
  1
*
  0
XRECORD
  5
1578
102
{ACAD_REACTORS
330
1352
102
}
330
1352
100
AcDbXrecord
280
     1
  1
平面総合図
  1
001*,002*,004*,010*,013*,014*,015*,016*,017*,018*,019*,020*,021*,030*,031*,034*,040*,045*
  1
*
  1
*
 70
     0
  1
*
  1
*
  0
XRECORD
  5
1579
102
{ACAD_REACTORS
330
1352
102
}
330
1352
100
AcDbXrecord
280
     1
  1
変更分
  1
六*
  1
*
  1
*
 70
     0
  1
*
  1
*
  0
XRECORD
  5
157A
102
{ACAD_REACTORS
330
1352
102
}
330
1352
100
AcDbXrecord
280
     1
  1
舗装平面
  1
*ほ*
  1
*
  1
*
 70
     0
  1
*
  1
*
  0
XRECORD
  5
157B
102
{ACAD_REACTORS
330
1352
102
}
330
1352
100
AcDbXrecord
280
     1
  1
舗装平面C1
  1
*α*
  1
*
  1
*
 70
     0
  1
*
  1
*
  0
XRECORD
  5
157C
102
{ACAD_REACTORS
330
1352
102
}
330
1352
100
AcDbXrecord
280
     1
  1
舗装平面C2
  1
*β*
  1
*
  1
*
 70
     0
  1
*
  1
*
  0
XRECORD
  5
157D
102
{ACAD_REACTORS
330
1352
102
}
330
1352
100
AcDbXrecord
280
     1
  1
舗装平面図
  1
*ほ*
  1
*
  1
*
 70
     0
  1
*
  1
*
  0
XRECORD
  5
157E
102
{ACAD_REACTORS
330
1352
102
}
330
1352
100
AcDbXrecord
280
     1
  1
法規チェック－区画
  1
*92
  1
*
  1
*
 70
     0
  1
*
  1
*
  0
XRECORD
  5
157F
102
{ACAD_REACTORS
330
1352
102
}
330
1352
100
AcDbXrecord
280
     1
  1
法規チェック－範囲
  1
*0
  1
*
  1
*
 70
     0
  1
*
  1
*
  0
XRECORD
  5
1580
102
{ACAD_REACTORS
330
1352
102
}
330
1352
100
AcDbXrecord
280
     1
  1
鳳文字入力
  1
*
  1
*
  1
*
 70
     0
  1
*
  1
*
  0
XRECORD
  5
1581
102
{ACAD_REACTORS
330
1352
102
}
330
1352
100
AcDbXrecord
280
     1
  1
防災
  1
B*
  1
*
  1
*
 70
   768
  1
*
  1
*
  0
XRECORD
  5
1582
102
{ACAD_REACTORS
330
1352
102
}
330
1352
100
AcDbXrecord
280
     1
  1
名称
  1
*名称
  1
*
  1
*
 70
     0
  1
*
  1
*
  0
XRECORD
  5
1583
102
{ACAD_REACTORS
330
1352
102
}
330
1352
100
AcDbXrecord
280
     1
  1
面積
  1
*
  1
*
  1
*
 70
     3
  1
*
  1
*
  0
XRECORD
  5
1584
102
{ACAD_REACTORS
330
1352
102
}
330
1352
100
AcDbXrecord
280
     1
  1
擁壁平面図
  1
*よ*
  1
*
  1
*
 70
     0
  1
*
  1
*
  0
XRECORD
  5
1585
102
{ACAD_REACTORS
330
1352
102
}
330
1352
100
AcDbXrecord
280
     1
  1
用途色塗
  1
*1-*
  1
*
  1
*
 70
     0
  1
*
  1
*
  0
XRECORD
  5
1586
102
{ACAD_REACTORS
330
1352
102
}
330
1352
100
AcDbXrecord
280
     1
  1
立面図
  1
*HOJO2
  1
*
  1
*
 70
     0
  1
*
  1
*
  0
XRECORD
  5
1587
102
{ACAD_REACTORS
330
1352
102
}
330
1352
100
AcDbXrecord
280
     1
  1
梁
  1
0,08*,17*,梁*
  1
*
  1
*
 70
     0
  1
*
  1
*
  0
XRECORD
  5
1588
102
{ACAD_REACTORS
330
1352
102
}
330
1352
100
AcDbXrecord
280
     1
  1
緑
  1
*
  1
Green
  1
*
 70
     0
  1
*
  1
*
  0
ENDSEC
  0
EOF
